Классический форум-трекер
canvas not supported
Нас вместе: 4 079 176

Снег в трауре (1978) SATRip


 
 
RSS
Начать новую тему   Ответить на тему    Торрент-трекер NNM-Club -> Классика кино и Старые фильмы до 90-х -> Старые Отечественные Фильмы (HD*Rip/LQ, DVDRip, SATRip, VHSRip)
Автор Сообщение
ornellit ®
Стаж: 9 лет 11 мес.
Сообщений: 1754
Ratio: 204,625
Поблагодарили: 96680
100%
ukraine.gif
Снег в трауре (1978) SATRip
Русское название: Снег в трауре
Год выпуска: 1978
Жанр: Драма

Описание фильма:
По мотивам одноименного романа Анри Труайя.
В альпийской деревушке живут два брата - Исай и Марселин. В горах происходит крушение пассажирского самолета. Марселин уговаривает Исая подняться к месту катастрофы, чтобы собрать ценные вещи погибших. Поднявшись к обломкам самолета, братья обнаруживают тяжелораненую девушку-индуску. Исай пытается спасти ее. Марселин удерживает брата, девушка может рассказать, кто подобрал ценности погибших. Герои оказываются перед сложным нравственным выбором.

Режиссер: Юрий Ерзинкян
Актеры: Армен Джигарханян, Гуж Манукян, Майя Булгакова, Алтынай Алысмуратова

Продолжительность: 01:13:55



Видеокодек: Xvid
Битрейт видео: ~1000 kb/s
Размер кадра: 640 x 480
Качество видео: SATRip
Аудиокодек: AC3
Битрейт аудио: 112 kb/s, 1 ch
Общее
Полное имя : Снег в трауре.1978.TVRip.[nnm-club.me].avi
Формат : AVI
Формат/Информация : Audio Video Interleave
Размер файла : 593 Мбайт
Продолжительность : 1 ч. 13 м.
Общий поток : 1122 Кбит/сек
Библиотека кодирования : VirtualDub-MPEG2 build 23843/release

Видео
Идентификатор : 0
Формат : MPEG-4 Visual
Профиль формата : Advanced Simple@L5
Параметр BVOP формата : Нет
Параметр QPel формата : Нет
Параметр GMC формата : Без точки перехода
Параметр матрицы формата : Default (MPEG)
Идентификатор кодека : XVID
Идентификатор кодека/Подсказка : XviD
Продолжительность : 1 ч. 13 м.
Битрейт : 1000 Кбит/сек
Ширина : 640 пикселей
Высота : 480 пикселей
Соотношение сторон : 4:3
Частота кадров : 25,000 кадров/сек
Цветовое пространство : YUV
Субдискретизация насыщенности : 4:2:0
Битовая глубина : 8 бит
Тип развёртки : Прогрессивная
Метод сжатия : С потерями
Бит/(Пиксели*Кадры) : 0.130
Размер потока : 529 Мбайт (89%)
Библиотека кодирования : XviD 1.2.0.dev47 (UTC 2006-11-01)

Аудио
Идентификатор : 1
Формат : MPEG Audio
Версия формата : Version 1
Профиль формата : Layer 3
Идентификатор кодека : 55
Идентификатор кодека/Подсказка : MP3
Продолжительность : 1 ч. 13 м.
Вид битрейта : Постоянный
Битрейт : 112 Кбит/сек
Каналы : 1 канал
Частота : 48,0 КГц
Метод сжатия : С потерями
Задержка видео : 13 мс.
Размер потока : 59,2 Мбайт (10%)
Выравнивание : Разделение по промежуткам
Продолжительность промежутка : 40 мс. (1,00 видеокадр)
Время предзагрузки промежутка : 500 мс.
Скриншоты:


Время раздачи: С 13:00 до 21:00 (до 5 скачавших)
Sneg v traure.1978.TVRip.[nnm-club.ru].avi.torrent
 Торрент: Платиновая раздача  Зарегистрирован
 
Скачать


Примагнититься
 Зарегистрирован:   10 Янв 2012 01:57:21
 Размер:   593 MB  (
 Рейтинг:    (Голосов: 6)
 Поблагодарили:   21
 Проверка:   Оформление проверено модератором 10 Янв 2012 13:26:30
Как cкачать  ·  Как раздать  ·  Правильно оформить  ·  Поднять ратио!  
аркуда
Стаж: 8 лет 11 мес.
Сообщений: 1064
Ratio: 40,268
Раздал: 10,13 TB
Поблагодарили: 22278
100%
russia.gif
ornellit,спасибо,что-то совсем не встречался мне этот фильм ранее
:задумался:

_________________
"Все преходяще - музыка вечна!"
ornellit ®
Стаж: 9 лет 11 мес.
Сообщений: 1754
Ratio: 204,625
Поблагодарили: 96680
100%
ukraine.gif
аркуда
то ли еще будет :)
аркуда
Стаж: 8 лет 11 мес.
Сообщений: 1064
Ratio: 40,268
Раздал: 10,13 TB
Поблагодарили: 22278
100%
russia.gif
ornellit...Вы меня пугаете,сэр! ну вот,Вы меня уже испугали...
:шок:

_________________
"Все преходяще - музыка вечна!"
Ираклемон
Стаж: 7 лет 7 мес.
Сообщений: 35
Ratio: 4,793
Поблагодарили: 386
100%
Я видел этот фильм по телевизору перед Московской Олимпиадой-80, и с тех пор его не повторяли... Спасибо, друг, ты вернул мне воспоминания юности!
Mihido
Стаж: 9 лет 4 мес.
Сообщений: 6
Ratio: 0,826
0%
paraguay.gif
Ираклемон писал(а): Перейти к сообщению
Я видел этот фильм по телевизору перед Московской Олимпиадой-80, и с тех пор его не повторяли... Спасибо, друг, ты вернул мне воспоминания юности!


Смотрел этот фильм, единственный раз в жизни: 25 мая 1979 года, по второму каналу, поздно вечером - окончил тогда первый класс и до поздна ждал родителей, один дома. Было какое-то, сюрреалистичемкое чувство.

С тех пор, ни разу о нём больше не слышал и даже забыл название. Искал по описанию - безрезультатно и вот, наконец-то, сегодня получил отклик и название!

Пересмотрю с удовольствием =)
Показать сообщения:   
Начать новую тему   Ответить на тему    Торрент-трекер NNM-Club -> Классика кино и Старые фильмы до 90-х -> Старые Отечественные Фильмы (HD*Rip/LQ, DVDRip, SATRip, VHSRip) Часовой пояс: GMT + 3
Страница 1 из 1