Классический форум-трекер
canvas not supported
Нас вместе: 4 079 351

Атлантида: Затерянный мир / Atlantis: The Lost Empire (2001) DVDRip


 
 
RSS
Начать новую тему   Ответить на тему    Торрент-трекер NNM-Club -> Мультфильмы -> Зарубежные Мультфильмы для детей
Автор Сообщение
CrimeanFox ®
Стаж: 8 лет 10 мес.
Сообщений: 1022
Ratio: 254,883
Поблагодарили: 33263
100%
Откуда: Крым
ussr.gif
Атлантида: Затерянный мир / Atlantis: The Lost Empire (2001) DVDRip
Русское название: Атлантида: Затерянный мир
Оригинальное название: Atlantis: The Lost Empire
Год выпуска: 2001
Жанр: Рисованная анимация, Приключения, Фантастика, Семейный
Страна: США
Студия: ''Walt Disney Pictures / Walt Disney Feature Animation / Toon City Inc.''

Перевод: Профессиональный (полное дублирование)
Перевод 2: Авторский (одноголосый закадоровый) Сергей Визгунов
Язык субтитров: русские (отдельным файлом, srt), английские (вшитые)


Дата мировой премьеры: 3 июня 2001,
Дата российской премьеры: 20 декабря 2001, «Каскад»
Дата выхода DVD/Blu-Ray релиза: 26 апреля 2011, «Уолт Дисней Компани СНГ»

Режиссер: Кирк Уайз / Kirk Wise, Гэри Трусдейл / Gary Trousdale
Персонажи: Майкл Дж. Фокс, Кори Бертон, Клаудия Кристиан, Джеймс Гарнер, Джон Махони, Фил Моррис, Леонард Нимой, Дон Новелло, Жаклин Обрадорс, Флоренс Стэнли

Описание фильма:
Атлантида… Мечтою найти легендарный затонувший в пучинах океана остров грезили многие смельчаки. Но только юному картографу Майло Тэтчу повезло: в 1914 году в его руки попал таинственный дневник, указывающий путь к Затерянной империи. И вот уже самая могучая подводная лодка в мире под командованием неустрашимого капитана Рурка выходит в открытый океан.
Майло и его спутников ждет множество незабываемых приключений, превосходящих все похождения капитана Немо: схватка с морским чудовищем, древние загадки, буйство стихий, мистические силы и даже встреча с цивилизацией атлантов! И это лишь малая толика того, что ждет героев на их пути к тайнам великой Атлантиды.


Доп. информация: Наложены английские неотключаемые субтитры на речь атлантов (~20 фраз), русскими субтитрами переведены надписи и разговоры на атлантическом (субтитры отдельным файлом)

Продолжительность: 01:31:50
Качество видео: DVDRip

Сэмпл: Скачать

Видеокодек: Xvid
Битрейт видео: ~1 967 Kbps
Размер кадра: 720х304
Аудиокодек: AC3, 6 ch / MP3 2 ch
Битрейт аудио: 384 Kbps
Аудио 1: AC-3, 6 ch (Front: L C R, Side: L R, LFE), 384 Kbps, 48.0 KHz (русский, Профессиональный (полное дублирование))
Аудио 2: MPEG Audio Layer 3, 2 ch, 160 Kbps, 48.0 KHz (русский, Авторский (одноголосый закадоровый) Сергей Визгунов)
Аудио 3: AC-3, 6 ch (Front: L C R, Side: L R, LFE), 384 Kbps, 48.0 KHz (английский)

Исходник DVD9, PAL 16:9 (720x576) VBR
Format : AVI
Format/Info : Audio Video Interleave
File size : 1.87 GiB
Duration : 1h 31mn
Overall bit rate : 2 917 Kbps
Director : CrimeanFox
Writing application : VirtualDubMod 1.5.10.2 (build 2540/release)
Writing library : VirtualDubMod build 2540/release

Video
ID : 0
Format : MPEG-4 Visual
Format profile : Advanced Simple@L5
Format settings, BVOP : 2
Format settings, QPel : No
Format settings, GMC : No warppoints
Format settings, Matrix : Default (MPEG)
Muxing mode : Packed bitstream
Codec ID : XVID
Codec ID/Hint : XviD
Duration : 1h 31mn
Bit rate : 1 967 Kbps
Width : 720 pixels
Height : 304 pixels
Display aspect ratio : 2.35:1
Frame rate : 25.000 fps
Color space : YUV
Chroma subsampling : 4:2:0
Bit depth : 8 bits
Scan type : Progressive
Compression mode : Lossy
Bits/(Pixel*Frame) : 0.359
Stream size : 1.26 GiB (67%)
Writing library : XviD 1.0.3 (UTC 2004-12-20)

Audio #1
ID : 1
Format : AC-3
Format/Info : Audio Coding 3
Mode extension : CM (complete main)
Codec ID : 2000
Duration : 1h 31mn
Bit rate mode : Constant
Bit rate : 384 Kbps
Channel(s) : 6 channels
Channel positions : Front: L C R, Side: L R, LFE
Sampling rate : 48.0 KHz
Bit depth : 16 bits
Compression mode : Lossy
Stream size : 252 MiB (13%)
Alignment : Split accross interleaves
Interleave, duration : 40 ms (1.00 video frame)
Interleave, preload duration : 500 ms

Audio #2
ID : 2
Format : MPEG Audio
Format version : Version 1
Format profile : Layer 3
Mode : Joint stereo
Mode extension : MS Stereo
Codec ID : 55
Codec ID/Hint : MP3
Duration : 1h 31mn
Bit rate mode : Variable
Bit rate : 160 Kbps
Channel(s) : 2 channels
Sampling rate : 48.0 KHz
Compression mode : Lossy
Delay relative to video : 3s 0ms
Stream size : 105 MiB (5%)
Alignment : Split accross interleaves
Interleave, duration : 24 ms (0.60 video frame)
Interleave, preload duration : 1208 ms
Writing library : LAME3.90.
Encoding settings : -m j -V 4 -q 2 -lowpass 18 --abr 160

Audio #3
ID : 3
Format : AC-3
Format/Info : Audio Coding 3
Mode extension : CM (complete main)
Codec ID : 2000
Duration : 1h 31mn
Bit rate mode : Constant
Bit rate : 384 Kbps
Channel(s) : 6 channels
Channel positions : Front: L C R, Side: L R, LFE
Sampling rate : 48.0 KHz
Bit depth : 16 bits
Compression mode : Lossy
Stream size : 252 MiB (13%)
Alignment : Split accross interleaves
Interleave, duration : 40 ms (1.00 video frame)
Interleave, preload duration : 500 ms
Скриншоты:




Время раздачи: С 10:00 до 24:00
[NNM-Club.ru]_Atlantis.The.lost.Empire.torrent
 Торрент: Платиновая раздача  Зарегистрирован
 
Скачать


Примагнититься
 Зарегистрирован:   12 Янв 2012 12:43:37
 Размер:   1,87 GB  (
 Рейтинг:   4,9 (Голосов: 50)
 Поблагодарили:   196
 Проверка:   Оформление проверено модератором 12 Янв 2012 12:48:10
Как cкачать  ·  Как раздать  ·  Правильно оформить  ·  Поднять ратио!  

_________________
«Добрым словом и револьвером можно добиться большего, чем одним добрым словом» (Аль Капоне) Мои релизы
Показать сообщения:   
Начать новую тему   Ответить на тему    Торрент-трекер NNM-Club -> Мультфильмы -> Зарубежные Мультфильмы для детей Часовой пояс: GMT + 3
Страница 1 из 1