Классический форум-трекер
canvas not supported
Нас вместе: 4 095 014

Полярный экспресс 3D / The Polar Express 3D (2004) [1080p] BDRip [ Горизонтальная анаморфная стереопара]


 
 
RSS
Начать новую тему   Ответить на тему    Торрент-трекер NNM-Club -> Мультфильмы -> Зарубежные Мультфильмы (3D)
Автор Сообщение
devozh ®
Стаж: 9 лет 4 мес.
Сообщений: 79
Ratio: 2,932
Раздал: 1,829 TB
Поблагодарили: 5522
100%
pirates.png
Полярный экспресс 3D / The Polar Express 3D (2004) BDRip [1080p] [ Горизонтальная анаморфная стереопара]
Название: Полярный экспресс 3D
Оригинальное название: The Polar Express 3D
Год выпуска: 2004
Жанр: мультфильм, фэнтези, приключения, семейный

Язык: русский, английский

Описание:
Необыкновенная история о маленьком мальчике, который верит в Санта Клауса, несмотря на то, что все друзья и вся семья в один голос утверждают, что это всего лишь сказка. И однажды искренняя вера мальчика вознаграждается. В канун Рождества у его дома останавливается волшебный поезд «Полярный экспресс» и уносит мальчика в чудесное незабываемое путешествие в гости к Санта Клаусу. И пока Рождественская ночь опускается на спящий мир, пассажиры «Полярного экспресса» мчатся на Северный Полюс, встречая на своем пути приключения и опасности, подстерегающие их в темных лесах, зловещих горах и ледяной тундре…

Режиссер: Роберт Земекис
Персонажи: Том Хэнкс, Майкл Джитер, Нона Гей, Питер Сколари, Эдди Дизен, Лесли Хартер Земекис, Чарльз Флайшер, Джош Эли, Марк Мендонка, Роландас Хендрикс



Продолжительность: 01:40:07
Перевод: Дублированный

Видеокодек: MPEG-4 AVC/H.264
Битрейт видео: 6400 Кбит/с
Размер кадра: 1920x1080
Качество видео: BDRip
Аудиокодек: AC3 6.0
Битрейт аудио: 640 Кбит/с
Аудио#1: Русский / AC3 / 6.0 ch / 640 Кбит/с / 48 KHz
Аудио#2: Английский / DTS / 6.0 ch / 1510 Кбит/с / 48 KHz

Сэмпл: Ссылка
Общее
Уникальный идентификатор : 225048152042664926878564246074256108546 (0xA94EB28F04E27B0797C77D11ADA9AC02)
Полное имя : P:\3d\Poljarnyj.ekspress.3D.2004.x264.BDRip(1080p).mkv
Формат : Matroska
Версия формата : Version 2
Размер файла : 6,10 Гбайт
Продолжительность : 1 ч. 40 м.
Общий поток : 8723 Кбит/сек
Дата кодирования : UTC 2010-12-27 07:29:22
Программа кодирования : mkvmerge v2.9.7 ('Tenderness') built on Jul 1 2009 18:43:35
Библиотека кодирования : libebml v0.7.7 + libmatroska v0.8.1

Видео
Идентификатор : 1
Формат : AVC
Формат/Информация : Advanced Video Codec
Профиль формата : High@L4.0
Параметр CABAC формата : Да
Параметр ReFrames формата : 4 кадра
Идентификатор кодека : V_MPEG4/ISO/AVC
Продолжительность : 1 ч. 40 м.
Битрейт : 6400 Кбит/сек
Ширина : 1920 пикселей
Высота : 1080 пикселей
Соотношение сторон : 16:9
Частота кадров : 23,976 кадра/сек
Цветовое пространство : YUV
Субдискретизация насыщенности : 4:2:0
Битовая глубина : 8 бит
Тип развёртки : Прогрессивная
Бит/(Пиксели*Кадры) : 0.129
Размер потока : 4,48 Гбайт (73%)
Библиотека кодирования : x264 core 112 r1834 a51816a
Настройки программы : cabac=1 / ref=4 / deblock=1:-2:-2 / analyse=0x3:0x113 / me=umh / subme=7 / psy=1 / psy_rd=1.00:0.15 / mixed_ref=1 / me_range=16 / chroma_me=1 / trellis=2 / 8x8dct=1 / cqm=0 / deadzone=21,11 / fast_pskip=1 / chroma_qp_offset=-3 / threads=6 / sliced_threads=0 / nr=0 / decimate=1 / interlaced=0 / constrained_intra=0 / bframes=6 / b_pyramid=0 / b_adapt=2 / b_bias=0 / direct=3 / weightb=1 / open_gop=0 / weightp=2 / keyint=250 / keyint_min=23 / scenecut=40 / intra_refresh=0 / rc_lookahead=40 / rc=crf / mbtree=1 / crf=18.0 / qcomp=0.60 / qpmin=10 / qpmax=51 / qpstep=4 / ip_ratio=1.40 / aq=1:1.00
Язык : English
Default : Да
Forced : Нет

Аудио #1
Идентификатор : 2
Формат : AC-3
Формат/Информация : Audio Coding 3
Расширение режима : CM (complete main)
Идентификатор кодека : A_AC3
Продолжительность : 1 ч. 40 м.
Вид битрейта : Постоянный
Битрейт : 640 Кбит/сек
Каналы : 6 каналов
Расположение каналов : Front: L C R, Side: L R, LFE
Частота : 48,0 КГц
Битовая глубина : 16 бит
Метод сжатия : С потерями
Размер потока : 458 Мбайт (7%)
Заголовок : Дубляж [ac3 6ch 640 kbps]
Язык : Russian
Default : Да
Forced : Нет

Аудио #2
Идентификатор : 3
Формат : DTS
Формат/Информация : Digital Theater Systems
Идентификатор кодека : A_DTS
Продолжительность : 1 ч. 40 м.
Вид битрейта : Постоянный
Битрейт : 1510 Кбит/сек
Каналы : 6 каналов
Расположение каналов : Front: L C R, Side: L R, LFE
Частота : 48,0 КГц
Битовая глубина : 24 бит
Метод сжатия : С потерями
Размер потока : 1,06 Гбайт (17%)
Язык : English
Default : Нет
Forced : Нет
Скриншоты:


Время раздачи: с 8:00 до 23:59 (GTM +11:00) / почти ежедневно
[NNM-Club.ru]_Poljarnyj.ekspress.3D.2004.x264.BDRip(1080p).mkv.torrent
 Торрент: Платиновая раздача  Зарегистрирован
 
Скачать


Примагнититься
 Зарегистрирован:   15 Янв 2012 05:51:37
 Размер:   6,1 GB  (
 Рейтинг:   4,6 (Голосов: 30)
 Поблагодарили:   119
 Проверка:   Оформление проверено модератором 15 Янв 2012 09:51:02
Как cкачать  ·  Как раздать  ·  Правильно оформить  ·  Поднять ратио!  

_________________
Мои релизы

batonchik
Куратор Видео
RG Releasers
Котоаплоадер 6000+
 
Стаж: 12 лет
Сообщений: 25472
Ratio: 90K
Раздал: 6,8053 PB
Поблагодарили: 1317848
100%
Откуда: из лесу
ussr.gif
devozh писал(а):
Сэмпл: Ссылка

Сэмпл заливаем на http://multi-up.com/ ! =)
Показать сообщения:   
Начать новую тему   Ответить на тему    Торрент-трекер NNM-Club -> Мультфильмы -> Зарубежные Мультфильмы (3D) Часовой пояс: GMT + 3
Страница 1 из 1