Классический форум-трекер
canvas not supported
Нас вместе: 4 093 524

Foo Fighters / Foo Fighters - Back And Forth (2011) BDRip [720p]


 
 
RSS
Начать новую тему   Ответить на тему    Торрент-трекер NNM-Club -> Театр и Музыкальное видео -> Концерты (HD, UHD, UHD-LQ)
Автор Сообщение
mixer-34 ®
Стаж: 8 лет 3 мес.
Сообщений: 170
Ratio: 63,466
Раздал: 9,231 TB
Поблагодарили: 3693
100%
Откуда: Волжский
russia.gif
Foo Fighters / Foo Fighters - Back And Forth (2011) BDRip [720p]
Русское название: Foo Fighters
Оригинальное название: Foo Fighters - Back And Forth
Год выпуска: 2011
Жанр: Музыка

Музыкальный жанр: Гранж, пост-гранж, альтернативный рок.

Продолжительность: 01:40:00

Описание фильма:
Документальный фильм об истории группы. Back and Forth был снят во время записи альбома Wasting Light.Фильм был спродюссирован Джеймсом Моллом. Также фильм был признан одним из семи лучших документальных фильмов 2011 года.

Актеры: Foo Fighters
Перевод: Одноголосый закадровый



Видеокодек: MPEG-4 AVC/H.264
Битрейт видео: ~6563 Кбит/сек
Размер кадра: 1280x720
Качество видео: BDRip
Аудиокодек: AC3
Битрейт аудио: 192 Кбит/с, 2 канала
Формат : Matroska
Версия формата : Version 2
Размер файла : 4,76 Гбайт
Продолжительность : 1 ч. 40 м.
Общий поток : 6755 Кбит/сек
Дата кодирования : UTC 2011-08-14 14:17:16
Программа кодирования : mkvmerge v3.1.0 ('Happy up here') built on Jan 19 2010 12:09:24
Библиотека кодирования : libebml v0.7.9 + libmatroska v0.8.1

Видео
Идентификатор : 1
Формат : AVC
Формат/Информация : Advanced Video Codec
Профиль формата : High@L4.1
Параметр CABAC формата : Да
Параметр ReFrames формата : 9 кадров
Идентификатор кодека : V_MPEG4/ISO/AVC
Продолжительность : 1 ч. 40 м.
Битрейт : 6563 Кбит/сек
Ширина : 1280 пикселей
Высота : 720 пикселей
Соотношение сторон : 16:9
Частота кадров : 23,976 кадра/сек
Цветовое пространство : YUV
Субдискретизация насыщенности : 4:2:0
Битовая глубина : 8 бит
Тип развёртки : Прогрессивная
Бит/(Пиксели*Кадры) : 0.297
Размер потока : 4,53 Гбайт (95%)
Библиотека кодирования : x264 core 107 r1745 4785e8e
Настройки программы : cabac=1 / ref=9 / deblock=1:-3:-3 / analyse=0x3:0x133 / me=tesa / subme=10 / psy=1 / psy_rd=0.90:0.00 / mixed_ref=1 / me_range=32 / chroma_me=1 / trellis=2 / 8x8dct=1 / cqm=0 / deadzone=21,11 / fast_pskip=1 / chroma_qp_offset=-2 / threads=3 / sliced_threads=0 / nr=0 / decimate=0 / interlaced=0 / constrained_intra=0 / bframes=6 / b_pyramid=2 / b_adapt=2 / b_bias=0 / direct=3 / weightb=1 / open_gop=0 / weightp=2 / keyint=250 / keyint_min=23 / scenecut=40 / intra_refresh=0 / rc=2pass / mbtree=0 / bitrate=6563 / ratetol=1.0 / qcomp=0.60 / qpmin=10 / qpmax=51 / qpstep=4 / cplxblur=20.0 / qblur=0.5 / ip_ratio=1.40 / pb_ratio=1.30 / aq=1:1.30
Язык : English
Default : Нет
Forced : Нет

Аудио
Идентификатор : 2
Формат : AC-3
Формат/Информация : Audio Coding 3
Расширение режима : CM (complete main)
Идентификатор кодека : A_AC3
Продолжительность : 1 ч. 40 м.
Вид битрейта : Постоянный
Битрейт : 192 Кбит/сек
Каналы : 2 канала
Расположение каналов : Front: L R
Частота : 48,0 КГц
Битовая глубина : 16 бит
Метод сжатия : С потерями
Размер потока : 139 Мбайт (3%)
Default : Да
Forced : Нет
Скриншоты:

Время раздачи: по возможности
[NNM-Club.ru]_Foo Fighters Back and Forth 2011 720p.mkv.torrent
 Торрент: Золотая раздача  Зарегистрирован
 
Зарегистрируйтесь и скачайте торрент!
12,3 KB

 Зарегистрирован:   15 Янв 2012 18:35:03
 Размер:   4,76 GB  (
 Рейтинг:   4,8 (Голосов: 14)
 Поблагодарили:   34
 Проверка:   Оформление проверено модератором 15 Янв 2012 20:05:18
Как cкачать  ·  Как раздать  ·  Правильно оформить  ·  Поднять ратио!  
mixer-34 ®
Стаж: 8 лет 3 мес.
Сообщений: 170
Ratio: 63,466
Раздал: 9,231 TB
Поблагодарили: 3693
100%
Откуда: Волжский
russia.gif
Вееееещь! :супер!: :стеб:

_________________
Здесь слово "русский" не политкорректно,
Вот "россиянин" - это "чисто" и"конкретно".
Строем роют по формату норы
Люди-телевизоры, люди-мониторы. (К.Кинчев )
ribochka
Стаж: 9 лет
Сообщений: 9
Ratio: 3,138
100%
kyrgyzstan.gif
встаньте на раздачу пожалуйста!!! :pray: :pray:
ribochka
Стаж: 9 лет
Сообщений: 9
Ratio: 3,138
100%
kyrgyzstan.gif
mixer-34
спасибо Вам большое!фильм класс!!обожаю foo fighters! :romashka:
Arrowstell
Стаж: 8 лет 4 мес.
Сообщений: 6
Ratio: 8,486
0.14%
Откуда: Samara
russia.gif
встаньте на раздачу?
Показать сообщения:   
Начать новую тему   Ответить на тему    Торрент-трекер NNM-Club -> Театр и Музыкальное видео -> Концерты (HD, UHD, UHD-LQ) Часовой пояс: GMT + 3
Страница 1 из 1