Классический форум-трекер
canvas not supported
Нас вместе: 4 076 813

Как Иванушка–дурачок за чудом ходил (1977) DVD5


 
 
RSS
Начать новую тему   Ответить на тему    Торрент-трекер NNM-Club -> Видео -> Отечественные Фильмы для детей
Автор Сообщение
mixer-34 ®

Online
Стаж: 7 лет 9 мес.
Сообщений: 171
Ratio: 63,502
Раздал: 9,23 TB
Поблагодарили: 3671
100%
Откуда: Волжский
russia.gif
Как Иванушка – дурачок за чудом ходил (1977) DVD5
Производство: СССР, Ленфильм
Жанр: Русская сказка, детский, семейный

Режиссер: Надежда Кошеверова
Актеры: Олег Даль, Елена Проклова, Михаил Глузский, Татьяна Пельтцер, Владимир Этуш, Андрей Попов, Александр Бениаминов, Мария Барабанова, Игорь Дмитриев, Михаил Боярский, Сергей Филиппов, Борис Аракелов

Описание:
Чтобы спасти свою любимую от злого недуга, Иванушка отправляется за тридевять земель, побеждает коварство богатого купца Марко, жульничество Феди-конокрада, недоверие волшебника Лукомора и завоевывает любовь Насти.


Возраст: 0+ (для любой зрительской аудитории)

Продолжительность: 01:25:01
Качество видео: DVD5
Субтитры: отсутствуют
Дополнительно: На диске есть информация о актёрах, биография, фильмография на момент выхода фильма.

Видео: MPEG-2, 720x576 (4:3) PAL, ~5986 Kbps
Аудио 1: AC3, 6 ch, 448 Kbps
Аудио 2: AC3, 1 ch, 224 Kbps
Формат                           : MPEG-PS
Размер файла : 1024 Мбайт
Продолжительность : 21 м.
Общий поток : 6793 Кбит/сек

Видео
Идентификатор : 224 (0xE0)
Формат : MPEG Video
Версия формата : Version 2
Профиль формата : Main@Main
Параметр BVOP формата : Да
Параметр матрицы формата : Выборочная
Продолжительность : 21 м.
Битрейт : 5986 Кбит/сек
Ширина : 720 пикселей
Высота : 576 пикселей
Соотношение сторон : 4:3
Частота кадров : 25,000 кадров/сек
Стандарт вещания : PAL
Цветовое пространство : YUV
Субдискретизация насыщенности : 4:2:0
Битовая глубина : 8 бит
Тип развёртки : Чересстрочная
Метод сжатия : С потерями
Бит/(Пиксели*Кадры) : 0.577
Размер потока : 902 Мбайт (88%)

Аудио #1
Идентификатор : 189 (0xBD)-128 (0x80)
Формат : AC-3
Формат/Информация : Audio Coding 3
Расширение режима : CM (complete main)
Режим смешивания : DVD-Video
Продолжительность : 21 м.
Вид битрейта : Постоянный
Битрейт : 448 Кбит/сек
Каналы : 6 каналов
Расположение каналов : Front: L C R, Side: L R, LFE
Частота : 48,0 КГц
Битовая глубина : 16 бит
Метод сжатия : С потерями
Задержка видео : 141 мс.
Размер потока : 67,5 Мбайт (7%)

Аудио #2
Идентификатор : 189 (0xBD)-129 (0x81)
Формат : AC-3
Формат/Информация : Audio Coding 3
Расширение режима : CM (complete main)
Режим смешивания : DVD-Video
Продолжительность : 21 м.
Вид битрейта : Постоянный
Битрейт : 224 Кбит/сек
Каналы : 1 канал
Расположение каналов : Front: C
Частота : 48,0 КГц
Битовая глубина : 16 бит
Метод сжатия : С потерями
Задержка видео : 139 мс.
Размер потока : 33,8 Мбайт (3%)
 Title: Kak.Ivanushka.Durachok.za.chudom.hodil.1977.DVD5
Size: 4.21 Gb ( 4 411 482,00 KBytes ) - DVD-5
Enabled regions: 1, 2, 3, 4, 5, 6, 7, 8

VTS_01 :
Play Length: 00:00:30
Video: PAL 16:9 (720x576) VBR, Auto Letterboxed
Audio:
Russian (Dolby AC3, 6 ch)

VTS_02 :
Play Length: 00:00:51
Video: PAL 4:3 (720x576) VBR

VTS_03 :
Play Length: 01:25:01
Video: PAL 16:9 (720x576) VBR, Auto Letterboxed
Audio:
Russian (Dolby AC3, 6 ch)
Russian (Dolby AC3, 1 ch)
Скриншоты:


Все одноименные релизы в Клубе
Время раздачи: По возможности 24 в сутки!
[NNM-Club.me]_Kak Ivanushka durachok za chudom hodil.torrent
 Торрент: Платиновая раздача  Зарегистрирован
 
Скачать


Примагнититься
 Зарегистрирован:   23 Май 2019 07:51:55
 Размер:   4,21 GB  (
 Рейтинг:   4,8 (Голосов: 30)
 Поблагодарили:   117
 Проверка:   Оформление проверено модератором 23 Май 2019 07:55:37
Как cкачать  ·  Как раздать  ·  Правильно оформить  ·  Поднять ратио!  

_________________
Здесь слово "русский" не политкорректно,
Вот "россиянин" - это "чисто" и"конкретно".
Строем роют по формату норы
Люди-телевизоры, люди-мониторы. (К.Кинчев )
Vereteno
Стаж: 8 лет 11 мес.
Сообщений: 5
Ratio: 310,688
100%
ukraine.gif
Спасибо за ДВД,скачаю посмотрю в высоком качестве =)
wombatbuddy
Стаж: 8 лет 5 мес.
Сообщений: 27
Ratio: 1,959
100%
Спасибо! классная сказка.
Показать сообщения:   
Начать новую тему   Ответить на тему    Торрент-трекер NNM-Club -> Видео -> Отечественные Фильмы для детей Часовой пояс: GMT + 3
Страница 1 из 1