Классический форум-трекер
canvas not supported
Нас вместе: 4 078 134

Кевин в Стране Драконов: Магический Куб / El cubo mágico / The Magic Cube (2006) DVDRip


 
 
RSS
Начать новую тему   Ответить на тему    Торрент-трекер NNM-Club -> Мультфильмы -> Зарубежные Мультфильмы для детей
Автор Сообщение
W.K. ®
Стаж: 8 лет 6 мес.
Сообщений: 637
Ratio: 281,18
Поблагодарили: 23044
100%
ussr.gif
Кевин в Стране Драконов: Магический Куб / El cubo mágico / The Magic Cube (2006) DVDRip
Русское название: Кевин в Стране Драконов: Магический Куб
Оригинальное название: El cubo mágico / The Magic Cube
Год выпуска: 2006 .
Жанр: Приключения, Фэнтези, Семейный

Перевод: Дублированный

Дата мировой премьеры: 22 декабря 2006
Режиссер: Анхель Изкуэрдо
Персонажи: Нет данных.
Описание фильма:
С тех пор, как злой волшебник Септимус и его слуга Тристан были заброшены на пустынный остров, в Стране Драконов воцарились мир и спокойствие. Жизнь идет своим чередом и все занимаются своими делами. Но Септимус находит способ вернуться назад с помощью Магического Куба, пропавшего более тысячи лет назад и обладающего величайшей волшебной силой.
И теперь обитателей Страны Драконов подстерегает страшная угроза, потому что Силы Зла рыщут по всей вселенной в поисках Магического Куба, который может принести множество бед жителям всех миров. Кевин, маленький дракон Элфи и их верные друзья снова вовлечены в череду захватывающих фантастических приключений. И только они могут отыскать Магический Куб, победить зло и вернуть в Страну драконов мир и благополучие.

Продолжительность: 01:12:15
Качество видео: DVDRip

Видеокодек: Xvid
Битрейт видео: ~2398 Кбит/сек
Размер кадра: 704 x 400, (16:9)
Аудиокодек: AC3 2.0
Битрейт аудио: 192 Кбит/сек
Общее
Полное имя : D:\Downloads\Kevin_v_strane_drakonov__2.avi
Формат : AVI
Формат/Информация : Audio Video Interleave
Размер файла : 1,31 Гбайт
Продолжительность : 1 ч. 12 м.
Общий поток : 2599 Кбит/сек
Программа кодирования : VirtualDubMod 1.5.10.3 | (build 2550/release)
Библиотека кодирования : VirtualDubMod build 2550/release

Видео
Идентификатор : 0
Формат : MPEG-4 Visual
Профиль формата : Advanced Simple@L5
Параметр BVOP формата : 1
Параметр QPel формата : Нет
Параметр GMC формата : Без точки перехода
Параметр матрицы формата : Default (MPEG)
Идентификатор кодека : XVID
Идентификатор кодека/Подсказка : XviD
Продолжительность : 1 ч. 12 м.
Битрейт : 2398 Кбит/сек
Ширина : 704 пикс.
Высота : 400 пикс.
Соотношение сторон : 16:9
Частота кадров : 25,000 кадр/сек
Цветовое пространство : YUV
Подвыборка цветности : 4:2:0
Битовая глубина : 8 бит
Тип развёртки : Прогрессивная
Метод сжатия : С потерями
Бит/(Пиксели*Кадры) : 0.341
Размер потока : 1,21 Гбайт (92%)
Библиотека кодирования : XviD 1.2.1 (UTC 2008-12-04)

Аудио
Идентификатор : 1
Формат : AC-3
Формат/Информация : Audio Coding 3
Расширение режима : CM (complete main)
Идентификатор кодека : 2000
Продолжительность : 1 ч. 12 м.
Вид битрейта : Постоянный
Битрейт : 192 Кбит/сек
Каналы : 2 канала
Расположение каналов : Front: L R
Частота : 48,0 КГц
Битовая глубина : 16 бит
Метод сжатия : С потерями
Размер потока : 99,2 Мбайт (7%)
Выравнивание : Разделение по промежуткам
Продолжительность промежутка : 40 мс. (1,00 видеокадр)
Время предзагрузки промежутка : 500 ms



Время раздачи: с 23:00 до 07:00, днем по мере возможности
Предыдущая часть: Кевин в стране Драконов / Dragon Hill / La Colina Del Dragon (2002) DVDRip
Приятного просмотра! :пока:
[NNM-Club.ru]_Kevin_v_strane_drakonov__2.avi.torrent
 Торрент: Золотая раздача  Зарегистрирован
 
Зарегистрируйтесь и скачайте торрент!
13,3 KB

Примагнититься
 Зарегистрирован:   20 Янв 2012 16:06:41
 Размер:   1,31 GB  (
 Рейтинг:   4,4 (Голосов: 21)
 Поблагодарили:   97
 Проверка:   Оформление проверено модератором 20 Янв 2012 16:27:25
Как cкачать  ·  Как раздать  ·  Правильно оформить  ·  Поднять ратио!  

_________________
Показать сообщения:   
Начать новую тему   Ответить на тему    Торрент-трекер NNM-Club -> Мультфильмы -> Зарубежные Мультфильмы для детей Часовой пояс: GMT + 3
Страница 1 из 1