Классический форум-трекер
canvas not supported
Нас вместе: 4 084 024
Платим за отзывы

The Rumjacks - An Irish Pub Song (сборник клипов) (2011) WEBRip [1080p] [720p]


 
 
RSS
Начать новую тему   Ответить на тему    Торрент-трекер NNM-Club -> Архив торрентов -> Архив Музыкального Видео
Автор Сообщение
BDRM ®
 
Стаж: 12 лет 9 мес.
Сообщений: 1517
Ratio: 32,16
Раздал: 54,36 TB
Поблагодарили: 37892
100%
Откуда: Край летающих собак
ussr.gif
The Rumjacks - An Irish Pub Song (сборник клипов) (2011) WEBRip [1080p] [720p]
Исполнитель: The Rumjacks
Название: An Irish Pub Song (сборник клипов)
Год выпуска: 2011
Жанр: Celtic Folk, Punk Rock
Актеры: Frankie McLaughlin, Johnny McKelvey, Anthony Matters, Gabriel Whitbourne, Adam Kenny
Треклист:
01. The Rumjacks - An Irish Pub Song [1080p] (03:21)
02. The Rumjacks - Unkle Tommy [1080p] (02:41)
03. The Rumjacks - BlankTV Shout Out - Laughing Outla (Live) [720p] (02:19)
04. The Rumjacks - Green Ginger Wine (Live) [1080p] (04:41)
05. The Rumjacks - I`ll Tell Me Ma [1080p] (02:47)
06. The Rumjacks Friends - Dirty Old Town (Live) [720p] (03:36)
07. The Rumjacks - Irish Pub Song (Unplugged) [1080p] (03:39)
08. The Rumjacks - Uncle Tommy (Live) [720p] (02:25)

Бонус:
09. The Moorings - Friendship [720p] (03:38)
Продолжительность: ~ 00:29:12

Видеокодек: MPEG-4 AVC/H.264
Размер кадра: 1920х1080 - 1280x720
Качество видео: WEBRip
Аудиокодек: AAC
Скриншоты:




Время раздачи: С 20:00 до 0:30 (до первых 4-5 сидов)
Дополнительно:
The Rumjacks - Sound As A Pound (2009) [EP]
The Rumjacks - Hung, Drawn & Portered (2009) [EP]
The Rumjacks - Gangs Of New Holland (2010) [LP]
General
Complete name : F:\Music Video\The Rumjacks\01 - The Rumjacks - An Irish Pub Song.mp4
Format : MPEG-4
Format profile : Base Media / Version 2
Codec ID : mp42
File size : 130 MiB
Duration : 3mn 22s
Overall bit rate : 5 384 Kbps
Encoded date : UTC 2011-03-12 10:58:16
Tagged date : UTC 2011-03-12 10:58:16
gsst : 0
gstd : 202040
gssd : B4A7D0F23MH1324195786825507
gshh : o-o.preferred.ams03s09.v13.lscache3.c.youtube.com
Xtra : WM/ContentDistributor

Video
ID : 1
Format : AVC
Format/Info : Advanced Video Codec
Format profile : High@L4.0
Format settings, CABAC : Yes
Format settings, ReFrames : 1 frame
Codec ID : avc1
Codec ID/Info : Advanced Video Coding
Duration : 3mn 22s
Bit rate : 5 252 Kbps
Maximum bit rate : 9 993 Kbps
Width : 1 920 pixels
Height : 1 080 pixels
Display aspect ratio : 16:9
Frame rate mode : Constant
Frame rate : 25.000 fps
Color space : YUV
Chroma subsampling : 4:2:0
Bit depth : 8 bits
Scan type : Progressive
Bits/(Pixel*Frame) : 0.101
Stream size : 126 MiB (98%)
Tagged date : UTC 2011-03-12 10:58:19

Audio
ID : 2
Format : AAC
Format/Info : Advanced Audio Codec
Format profile : LC
Codec ID : 40
Duration : 3mn 21s
Bit rate mode : Variable
Bit rate : 128 Kbps
Maximum bit rate : 159 Kbps
Channel(s) : 2 channels
Channel positions : Front: L R
Sampling rate : 44.1 KHz
Compression mode : Lossy
Stream size : 3.08 MiB (2%)
Title : (C) 2007 Google Inc. v08.13.2007.
Encoded date : UTC 2011-03-12 10:58:18
Tagged date : UTC 2011-03-12 10:58:19
[NNM-Club.ru]_The Rumjacks.torrent
 Торрент: Золотая раздача  Зарегистрирован
 
Зарегистрируйтесь и скачайте торрент!
19,4 KB

Примагнититься
 Зарегистрирован:   21 Янв 2012 13:26:38
 Размер:   936 MB  (
 Рейтинг:    (Голосов: 4)
 Поблагодарили:   12
 Проверка:   Оформление проверено модератором 21 Янв 2012 13:58:50
Как cкачать  ·  Как раздать  ·  Правильно оформить  ·  Поднять ратио!  
Loading...
Топик был перенесен из форума Музыкальные клипы в форум Архив Музыкального Видео

Причина переноса: Отсутствие сидов более трех месяцев.

Исправил релиз - напиши ЛС ALLic, дав ссылку на релиз.
Если нет ответа 24 часа - нажми на кнопку "Обратить внимание модераторов".
necondition
Стаж: 9 лет 7 мес.
Сообщений: 41
Ratio: 2,066
100%
czechrepublic.gif
Друзья встаньте на раздачу

_________________
Операционная система Microsoft Windows 8 Professional
DirectX DirectX 11.1
Тип ЦП QuadCore Intel Core i5-2320, 3100 MHz (31 x 100)
Чипсет системной платы Intel Cougar Point H67, Intel Sandy Bridge
Системная память 8176 МБ (DDR3-1333 DDR3 SDRAM)
Видеоадаптер AMD Radeon HD 6800 Series (Microsoft Corporation - WDDM v1.20) (1 ГБ)
Показать сообщения:   
Начать новую тему   Ответить на тему    Торрент-трекер NNM-Club -> Архив торрентов -> Архив Музыкального Видео Часовой пояс: GMT + 3
Страница 1 из 1