Классический форум-трекер
canvas not supported
Нас вместе: 4 095 125

Остаться в живых. Чудо в Андах / I Am Alive: Surviving the Andes Plane Crash (2010) SATRip


 
 
RSS
Начать новую тему   Ответить на тему    Торрент-трекер NNM-Club -> Зарубежные TV-бренды -> Интересно обо всем
Автор Сообщение
farra64 ®
Реставратор Клуба
Стаж: 9 лет 3 мес.
Сообщений: 585
Ratio: 9,504
Раздал: 1,672 TB
Поблагодарили: 51984
100%
roody.gif
Остаться в живых. Чудо в Андах / I Am Alive: Surviving the Andes Plane Crash (2010) SATRip
Русское название: Остаться в живых. Чудо в Андах
Оригинальное название: I Am Alive: Surviving the Andes Plane Crash
Телекомпания: США, AETN
Год выпуска: 2010
Жанр: Документальный, Телепередача

Описание:
Этот захватывающий документальный фильм рассказывает об одной из самых невероятных историй выживания людей в экстремальных ситуациях, о непреодолимом желании жить, о мужестве и силе духа совсем молодых людей.
Катастрофа чартерного рейса 571 уругвайских ВВС, перевозившего членов уругвайской регбийной команды и их родственников, произошла над Андами 13 октября 1972 года. 12 пассажиров погибло при падении и столкновении самолета со скалой, ещё несколько человек умерли позже от ран и холода. Из 29 уцелевших 8 погибли при сходе лавины.

У выживших был минимальный запас пищи, кроме того, у них не было источников тепла, необходимого для выживания в суровом климате на высоте 3600 метров. Отчаявшиеся люди, услышав по радио сообщения о том, что "все мероприятия по поиску пропавшего самолёта прекращаются", стали есть тела своих погибших товарищей. Спасатели узнали о выживших лишь спустя 72 дня. Нандо Паррадо и Роберто Канесса отправились за помощью. После двенадцатидневного похода через горы они встретили чилийского фермера, который и сообщил властям о том, что часть пассажиров разбившегося самолета выжила.
Об авиакатастрофе и последовавших за ней трагических событиях рассказывают пассажиры рейса 571, их родственники, члены спасательной команды, эксперты по выживанию в экстремальных ситуациях. Для воссоздания реальной картины драматических событий используются постановочные сцены, кадры архивной хроники и любительской фото-и видеосъемки.



Продолжительность: 00:59:00

Перевод: Многоголосый закадровый, профессиональный

Видеокодек: Xvid
Битрейт видео: ~1545 Кбит/сек
Размер кадра: 704х448
Качество видео: SATRip
Аудиокодек: MP3
Битрейт аудио: 128 Кбит/сек
Общее
Полное имя : Остаться_в_живых_Анды.avi
Формат : AVI
Формат/Информация : Audio Video Interleave
Размер файла : 720 Мбайт
Продолжительность : 59 м.
Общий поток : 1683 Кбит/сек
Название фильма : rip by KimVlad
Программа кодирования : VirtualDubMod 1.5.10.3 (build 2550/release)
Библиотека кодирования : VirtualDubMod build 2550/release

Видео
Идентификатор : 0
Формат : MPEG-4 Visual
Профиль формата : Advanced Simple@L5
Параметр BVOP формата : 2
Параметр QPel формата : Нет
Параметр GMC формата : Без точки перехода
Параметр матрицы формата : Выборочная
Режим смешивания : Сжатый битовый поток
Идентификатор кодека : XVID
Идентификатор кодека/Подсказка : XviD
Продолжительность : 59 м.
Битрейт : 1545 Кбит/сек
Ширина : 704 пикселя
Высота : 448 пикселей
Соотношение сторон : 1,571
Частота кадров : 25,000 кадров/сек
Цветовое пространство : YUV
Субдискретизация насыщенности : 4:2:0
Битовая глубина : 8 бит
Тип развёртки : Прогрессивная
Метод сжатия : С потерями
Бит/(Пиксели*Кадры) : 0.196
Размер потока : 661 Мбайт (92%)
Библиотека кодирования : XviD 62

Аудио
Идентификатор : 1
Формат : MPEG Audio
Версия формата : Version 1
Профиль формата : Layer 3
Режим : Joint stereo
Идентификатор кодека : 55
Идентификатор кодека/Подсказка : MP3
Продолжительность : 59 м.
Вид битрейта : Постоянный
Битрейт : 128 Кбит/сек
Каналы : 2 канала
Частота : 48,0 КГц
Метод сжатия : С потерями
Размер потока : 54,8 Мбайт (8%)
Выравнивание : Разделение по промежуткам
Продолжительность промежутка : 40 мс. (1,00 видеокадр)
Время предзагрузки промежутка : 500 мс.

Скриншоты:


Время раздачи: 24/7 По возможности
[NNM-Club.ru]_Ostat'sya_v_zhivyih_Andyi.avi.torrent
 Торрент: Платиновая раздача  Зарегистрирован
 
Скачать


Примагнититься
 Зарегистрирован:   27 Янв 2012 03:17:49
 Размер:   720 MB  (
 Рейтинг:   4,8 (Голосов: 19)
 Поблагодарили:   88
 Проверка:   Оформление проверено модератором 27 Янв 2012 08:13:28
Как cкачать  ·  Как раздать  ·  Правильно оформить  ·  Поднять ратио!  
Губач
Стаж: 8 лет 9 мес.
Сообщений: 9
Ratio: 321,169
Раздал: 81,23 TB
100%
russia.gif
Есть отличный художественный фильм,основанный на этой истории," Выжить. "
farra64 ®
Реставратор Клуба
Стаж: 9 лет 3 мес.
Сообщений: 585
Ratio: 9,504
Раздал: 1,672 TB
Поблагодарили: 51984
100%
roody.gif
Губач писал(а): Перейти к сообщению
Есть отличный художественный фильм,основанный на этой истории," Выжить. "

Выжить / Живые / Alive (1993) HDTVRip
Dispeatcher
Стаж: 9 лет 5 мес.
Сообщений: 2465
Ratio: 12,048
Раздал: 14,61 TB
Поблагодарили: 13907
100%
Откуда: Замоскворечье Куда: Туда!
witch.png
Интересный фильм! Действительно чудо и ужас выживших!

_________________
Рад что Вы Умные, огорчен что не Гении!)
Показать сообщения:   
Начать новую тему   Ответить на тему    Торрент-трекер NNM-Club -> Зарубежные TV-бренды -> Интересно обо всем Часовой пояс: GMT + 3
Страница 1 из 1