Классический форум-трекер
canvas not supported
Нас вместе: 4 079 087

Наркомовский обоз (2011) DVDRip [H.264] (4 серии из 4)


 
 
RSS
Начать новую тему   Ответить на тему    Торрент-трекер NNM-Club -> Отечественные сериалы
Автор Сообщение
эксклюзив ®
Стаж: 8 лет 7 мес.
Сообщений: 1169
Ratio: 159,795
Поблагодарили: 75093
100%
Наркомовский обоз (2011) DVDRip [H.264] (4 серии из 4)
Производство: Россия
Жанр: драма, приключения, военный

Режиссер: Влад Фурман
Актеры: Сергей Маховиков, Ольга Фадеева, Анна Арланова, Ирина Рахманова, Ричард Бондарев, Анатолий Петров, Дарья Баранова, Алексей Дозморов, Агния Кузнецова и др.

Описание:
1941 год. Только что вышло постановление Комитета Обороны о водочном довольствии для действующей армии. Старшина Филиппов получает задание: впервые доставить в стрелковую дивизию те самые знаменитые «100 наркомовских грамм». В помощники ему дают 4 девушки-красноармейца, местного старика-проводника Архипа и его внука-подростка Митю. Погрузив на телеги тару, обоз трогается в путь. За несколько часов этой, казалось бы, рутинной тыловой поездки всем им предстоит пройти настоящие военные испытания: не единожды вступить бой, стать свидетелями высокой доблести и подлой трусости, узнать любовь и ревность.


Возраст: 16+ (зрителям, достигшим 16 лет)

Продолжительность: 4 х ~ 00:49:00
Качество видео: DVDRip

Видео: AVC/H.264, 720x576@1024x576, ~2900 kbps
Аудио: AC3, 2 ch, 192 kbps
Общее
Уникальный идентификатор : 192999763335732095166921507466861356750 (0x9132670033103F0E99443F73805C26CE)
Полное имя : G:\Наркомовский обоз.(4 серии из 4).2011.x264.DVDRip.(AVC)\Narkomovskij.oboz.(1.seriya.iz.4).2011.x264.DVDRip.(AVC)..mkv
Формат : Matroska
Размер файла : 972 Мбайт
Продолжительность : 48 м.
Общий поток : 2777 Кбит/сек
Программа кодирования : mkvmerge v2.3.0 ('Freak U') built on Sep 8 2008 18:32:16
Библиотека кодирования : libebml v0.7.7 + libmatroska v0.8.1

Видео
Идентификатор : 1
Формат : AVC
Формат/Информация : Advanced Video Codec
Параметр CABAC формата : Да
Параметр ReFrames формата : 8 кадры
Идентификатор кодека : V_MPEG4/ISO/AVC
Продолжительность : 48 м.
Битрейт : 2600 Кбит/сек
Ширина : 720 пикс.
Высота : 576 пикс.
Соотношение сторон : 16:9
Соотношение сторон в оригинале : 5:4
Частота кадров : 25,000 кадр/сек
Стандарт вещания : PAL
Цветовое пространство : YUV
Подвыборка цветности : 4:2:0
Битовая глубина : 8 бит
Тип развёртки : Прогрессивная
Бит/(Пиксели*Кадры) : 0.251
Размер потока : 885 Мбайт (91%)
Заголовок : Narkomovskij.oboz.(1.seriya.iz.4).2011.x264.DVDRip.(AVC).Kinozal.TV-AVC [Release by tahiy]
Библиотека кодирования : x264 core 115 r1995 c1e60b9
Настройки программы : cabac=1 / ref=8 / deblock=1:-3:-3 / analyse=0x1:0x111 / me=hex / subme=9 / psy=1 / psy_rd=1.00:0.00 / mixed_ref=1 / me_range=16 / chroma_me=1 / trellis=0 / 8x8dct=0 / cqm=0 / deadzone=21,11 / fast_pskip=1 / chroma_qp_offset=-2 / threads=3 / sliced_threads=0 / nr=0 / decimate=1 / interlaced=0 / bluray_compat=0 / constrained_intra=0 / bframes=3 / b_pyramid=2 / b_adapt=1 / b_bias=0 / direct=2 / weightb=0 / open_gop=0 / weightp=2 / keyint=250 / keyint_min=25 / scenecut=40 / intra_refresh=0 / rc_lookahead=40 / rc=2pass / mbtree=1 / bitrate=2600 / ratetol=1.0 / qcomp=0.60 / qpmin=10 / qpmax=51 / qpstep=4 / cplxblur=20.0 / qblur=0.5 / ip_ratio=1.40 / aq=1:1.00
Язык : English

Аудио
Идентификатор : 2
Формат : AC-3
Формат/Информация : Audio Coding 3
Расширение режима : CM (complete main)
Идентификатор кодека : A_AC3
Продолжительность : 48 м.
Вид битрейта : Постоянный
Битрейт : 192 Кбит/сек
Канал(ы) : 2 канала(ов)
Расположение каналов : Front: L R
Частота : 48,0 КГц
Битовая глубина : 16 бит
Метод сжатия : С потерями
Размер потока : 67,2 Мбайт (7%)

Общее
Уникальный идентификатор : 199372702592372144799891881552000455968 (0x95FDC92A4B46FFD9A63C420A6FD21520)
Полное имя : G:\Наркомовский обоз.(4 серии из 4).2011.x264.DVDRip.(AVC)\Narkomovskij.oboz.(2.seriya.iz.4).2011.x264.DVDRip.(AVC)..mkv
Формат : Matroska
Размер файла : 1,08 Гбайт
Продолжительность : 50 м.
Общий поток : 3073 Кбит/сек
Программа кодирования : mkvmerge v2.3.0 ('Freak U') built on Sep 8 2008 18:32:16
Библиотека кодирования : libebml v0.7.7 + libmatroska v0.8.1

Видео
Идентификатор : 1
Формат : AVC
Формат/Информация : Advanced Video Codec
Параметр CABAC формата : Да
Параметр ReFrames формата : 8 кадры
Идентификатор кодека : V_MPEG4/ISO/AVC
Продолжительность : 50 м.
Битрейт : 2900 Кбит/сек
Ширина : 720 пикс.
Высота : 576 пикс.
Соотношение сторон : 16:9
Соотношение сторон в оригинале : 5:4
Частота кадров : 25,000 кадр/сек
Стандарт вещания : PAL
Цветовое пространство : YUV
Подвыборка цветности : 4:2:0
Битовая глубина : 8 бит
Тип развёртки : Прогрессивная
Бит/(Пиксели*Кадры) : 0.280
Размер потока : 1015 Мбайт (92%)
Заголовок : Narkomovskij.oboz.(2.seriya.iz.4).2011.x264.DVDRip.(AVC).Kinozal.TV-AVC [Release by tahiy]
Библиотека кодирования : x264 core 115 r1995 c1e60b9
Настройки программы : cabac=1 / ref=8 / deblock=1:-3:-3 / analyse=0x1:0x111 / me=hex / subme=9 / psy=1 / psy_rd=1.00:0.00 / mixed_ref=1 / me_range=16 / chroma_me=1 / trellis=0 / 8x8dct=0 / cqm=0 / deadzone=21,11 / fast_pskip=1 / chroma_qp_offset=-2 / threads=3 / sliced_threads=0 / nr=0 / decimate=1 / interlaced=0 / bluray_compat=0 / constrained_intra=0 / bframes=3 / b_pyramid=2 / b_adapt=1 / b_bias=0 / direct=2 / weightb=0 / open_gop=0 / weightp=2 / keyint=250 / keyint_min=25 / scenecut=40 / intra_refresh=0 / rc_lookahead=40 / rc=2pass / mbtree=1 / bitrate=2900 / ratetol=1.0 / qcomp=0.60 / qpmin=10 / qpmax=51 / qpstep=4 / cplxblur=20.0 / qblur=0.5 / ip_ratio=1.40 / aq=1:1.00
Язык : English

Аудио
Идентификатор : 2
Формат : AC-3
Формат/Информация : Audio Coding 3
Расширение режима : CM (complete main)
Идентификатор кодека : A_AC3
Продолжительность : 50 м.
Вид битрейта : Постоянный
Битрейт : 192 Кбит/сек
Канал(ы) : 2 канала(ов)
Расположение каналов : Front: L R
Частота : 48,0 КГц
Битовая глубина : 16 бит
Метод сжатия : С потерями
Размер потока : 69,1 Мбайт (6%)

Общее
Уникальный идентификатор : 186107553687570650408148329534140361469 (0x8C0302D453BE2CD2AD9A5A0443C2AAFD)
Полное имя : G:\Наркомовский обоз.(4 серии из 4).2011.x264.DVDRip.(AVC)\Narkomovskij.oboz.(3.seriya.iz.4).2011.x264.DVDRip.(AVC)..mkv
Формат : Matroska
Размер файла : 1,06 Гбайт
Продолжительность : 48 м.
Общий поток : 3126 Кбит/сек
Программа кодирования : mkvmerge v2.3.0 ('Freak U') built on Sep 8 2008 18:32:16
Библиотека кодирования : libebml v0.7.7 + libmatroska v0.8.1

Видео
Идентификатор : 1
Формат : AVC
Формат/Информация : Advanced Video Codec
Параметр CABAC формата : Да
Параметр ReFrames формата : 8 кадры
Идентификатор кодека : V_MPEG4/ISO/AVC
Продолжительность : 48 м.
Битрейт : 2950 Кбит/сек
Ширина : 720 пикс.
Высота : 576 пикс.
Соотношение сторон : 16:9
Соотношение сторон в оригинале : 5:4
Частота кадров : 25,000 кадр/сек
Стандарт вещания : PAL
Цветовое пространство : YUV
Подвыборка цветности : 4:2:0
Битовая глубина : 8 бит
Тип развёртки : Прогрессивная
Бит/(Пиксели*Кадры) : 0.285
Размер потока : 1001 Мбайт (92%)
Заголовок : Narkomovskij.oboz.(3.seriya.iz.4).2011.x264.DVDRip.(AVC).Kinozal.TV-AVC [Release by tahiy]
Библиотека кодирования : x264 core 115 r1995 c1e60b9
Настройки программы : cabac=1 / ref=8 / deblock=1:-3:-3 / analyse=0x1:0x111 / me=hex / subme=9 / psy=1 / psy_rd=1.00:0.00 / mixed_ref=1 / me_range=16 / chroma_me=1 / trellis=0 / 8x8dct=0 / cqm=0 / deadzone=21,11 / fast_pskip=1 / chroma_qp_offset=-2 / threads=3 / sliced_threads=0 / nr=0 / decimate=1 / interlaced=0 / bluray_compat=0 / constrained_intra=0 / bframes=3 / b_pyramid=2 / b_adapt=1 / b_bias=0 / direct=2 / weightb=0 / open_gop=0 / weightp=2 / keyint=250 / keyint_min=25 / scenecut=40 / intra_refresh=0 / rc_lookahead=40 / rc=2pass / mbtree=1 / bitrate=2950 / ratetol=1.0 / qcomp=0.60 / qpmin=10 / qpmax=51 / qpstep=4 / cplxblur=20.0 / qblur=0.5 / ip_ratio=1.40 / aq=1:1.00
Язык : English

Аудио
Идентификатор : 2
Формат : AC-3
Формат/Информация : Audio Coding 3
Расширение режима : CM (complete main)
Идентификатор кодека : A_AC3
Продолжительность : 48 м.
Вид битрейта : Постоянный
Битрейт : 192 Кбит/сек
Канал(ы) : 2 канала(ов)
Расположение каналов : Front: L R
Частота : 48,0 КГц
Битовая глубина : 16 бит
Метод сжатия : С потерями
Размер потока : 66,9 Мбайт (6%)

Общее
Уникальный идентификатор : 229943788006557649752866398144965346740 (0xACFD900C1BDBE529BF0F258A971785B4)
Полное имя : G:\Наркомовский обоз.(4 серии из 4).2011.x264.DVDRip.(AVC)\Narkomovskij.oboz.(4.seriya.iz.4).2011.x264.DVDRip.(AVC)..mkv
Формат : Matroska
Размер файла : 1,27 Гбайт
Продолжительность : 49 м.
Общий поток : 3684 Кбит/сек
Программа кодирования : mkvmerge v2.3.0 ('Freak U') built on Sep 8 2008 18:32:16
Библиотека кодирования : libebml v0.7.7 + libmatroska v0.8.1

Видео
Идентификатор : 1
Формат : AVC
Формат/Информация : Advanced Video Codec
Параметр CABAC формата : Да
Параметр ReFrames формата : 8 кадры
Идентификатор кодека : V_MPEG4/ISO/AVC
Продолжительность : 49 м.
Битрейт : 3500 Кбит/сек
Ширина : 720 пикс.
Высота : 576 пикс.
Соотношение сторон : 16:9
Соотношение сторон в оригинале : 5:4
Частота кадров : 25,000 кадр/сек
Стандарт вещания : PAL
Цветовое пространство : YUV
Подвыборка цветности : 4:2:0
Битовая глубина : 8 бит
Тип развёртки : Прогрессивная
Бит/(Пиксели*Кадры) : 0.338
Размер потока : 1,17 Гбайт (93%)
Заголовок : Narkomovskij.oboz.(4.seriya.iz.4).2011.x264.DVDRip.(AVC).Kinozal.TV-AVC [Release by tahiy]
Библиотека кодирования : x264 core 115 r1995 c1e60b9
Настройки программы : cabac=1 / ref=8 / deblock=1:-3:-3 / analyse=0x1:0x111 / me=hex / subme=9 / psy=1 / psy_rd=1.00:0.00 / mixed_ref=1 / me_range=16 / chroma_me=1 / trellis=0 / 8x8dct=0 / cqm=0 / deadzone=21,11 / fast_pskip=1 / chroma_qp_offset=-2 / threads=3 / sliced_threads=0 / nr=0 / decimate=1 / interlaced=0 / bluray_compat=0 / constrained_intra=0 / bframes=3 / b_pyramid=2 / b_adapt=1 / b_bias=0 / direct=2 / weightb=0 / open_gop=0 / weightp=2 / keyint=250 / keyint_min=25 / scenecut=40 / intra_refresh=0 / rc_lookahead=40 / rc=2pass / mbtree=1 / bitrate=3500 / ratetol=1.0 / qcomp=0.60 / qpmin=10 / qpmax=51 / qpstep=4 / cplxblur=20.0 / qblur=0.5 / ip_ratio=1.40 / aq=1:1.00
Язык : English

Аудио
Идентификатор : 2
Формат : AC-3
Формат/Информация : Audio Coding 3
Расширение режима : CM (complete main)
Идентификатор кодека : A_AC3
Продолжительность : 49 м.
Вид битрейта : Постоянный
Битрейт : 192 Кбит/сек
Канал(ы) : 2 канала(ов)
Расположение каналов : Front: L R
Частота : 48,0 КГц
Битовая глубина : 16 бит
Метод сжатия : С потерями
Размер потока : 67,5 Мбайт (5%)
Скриншоты:
/// Отреставрируем и восстановим всем Клубом! ///

Все одноименные релизы в Клубе
[NNM-Club.ru]_Narkomovskiy oboz.(4 serii iz 4).2011.x264.DVDRip.(AVC).torrent
 Торрент: Платиновая раздача  Зарегистрирован
 
Скачать


Примагнититься
 Зарегистрирован:   26 Апр 2019 20:43:47
 Размер:   4,36 GB  (
 Рейтинг:   4,8 (Голосов: 88)
 Поблагодарили:   324
 Проверка:   Оформление проверено модератором 26 Апр 2019 20:57:06
Как cкачать  ·  Как раздать  ·  Правильно оформить  ·  Поднять ратио!  
alekslu
Стаж: 9 лет 1 мес.
Сообщений: 382
Ratio: 6,32
100%
Откуда: New York
usa.gif
Большое Спасибо!
С удовольствием посмотрю.
Тем более, что в этом фильме снялся в главной роли Сергей Маховиков, а этот актёр не снимается в "отстойных" фильмах.
Раздающему Респект!

Виктор813
Стаж: 7 лет 4 мес.
Сообщений: 6
Ratio: 47,012
Раздал: 709 GB
100%
Откуда: Барнаул
ussr.gif
Меня поражают современные режиссёры, снимающие "про войну" и ничего о предмете съёмок не смыслящие.
Во-первых, мало взять за основу сюжет фильма "А зори здесь тихие". Да, воспоминания героев помогают лучше понять, чтО двигает героями, каковы причины такого их поведения, их поступков.
Во-вторых, тема "бедненьких несчастненьких" евреев просто достала. Что ни фильм о войне или бандитских разборках ("Хозяйку тайги", к примеру, посмотрите) - так обязательно невинно убиенный еврейчик присутствует. Тошнит уже от них.
В-третьих, меня просто доканывают режиссёры своей щедростью. Взять, к примеру, сцену, где немцы натыкаются на отставшую подводу. Я понял бы ещё, зачем фашистам сохранять жизнь фройлян - с красоткой можно позабавиться,- но зачем им старик? Логично и закономерно уложить деда в сыру землю не отходя от кассы, то бишь бочки со шнапсом. Далее, зачем немцам оставлять винтовки в полном снаряжении на дороге - для партизан? Но что меня раздражает больше всего, так это упрямство современных героев - ну, не желают пользоваться трофейным оружием, и всё тут! К чему три пулемёта и автомата с полным боекомплектом, нам пары гранат хватит! А ведь оружия в начале войны на всех не хватало, красноармейцы шли в атаку с одной винтовкой на троих... Мне мои деды рассказывали о войне. Жаль, что современные "авторы", начитавшись комиксов, думают, будто всё о ней знают.
kiv
Стаж: 9 лет 1 мес.
Сообщений: 227
Ratio: 0,977
9.38%
russia.gif
Война давно закончилась,а кино пустое всё снимают.
Кругом одни бедные евреи.

_________________

"Важнейшим из искусств для нас является кино" - В.И. Ленин.(Так звучит лучше)
Lilla
Стаж: 9 лет 8 мес.
Сообщений: 15
Ratio: 12,237
100%
Откуда: ГБ ЧФ
russia.gif
Уважаемые, а что вы знаете об участии евреев в войне? Севастополь оборонял Приморская армия, на 70% состаявшая из евреев-им деваться было некуда, стояли до последнего-в плен их не брали, расстреливали на месте. Ни в коем случае не поддерживаю всеобщих стенаний по поводу несчастного еврейского народа-всем было тяжело, но мужество людей, защищавших мой город, заставляет с уважением относится к этой нации. Трофейное оружие- им просто не умели пользоваться, это уже после 1942г. начали изучать технику врага, это сейчас все умные-в интернет залезли и мануал посмотрели-не надо мерять сегодняшними понятиями. Очень уважаю людей, которые помнят, что рассказывали им деды, но субъективное мнение не всегда самое правильное.
formen
Стаж: 6 лет 5 мес.
Сообщений: 1
Ratio: 0,27
0%
Хороший фильм про войну. Но есть много моментов, где бы Станиславский наверно сказал"Не верю!"
mvclub
Стаж: 7 лет 4 мес.
Сообщений: 2224
Ratio: 32,847
Раздал: 5,86 TB
Поблагодарили: 37424
100%
Откуда: Питер
russia.gif
Фильм не понравился. Осилил только до половины. Для меня это - бездарный коктейль из "А зори здесь тихие..." и "Обратной дороги нет". Лучше в сотый раз пересмотреть именно эти фильмы. Да и что может снять конъюнктурщик Фурман? Правильно - дешевую костюмированную поделку. Это не война. "Зарница"! Особенно удручали гламурные барышни в сапогах и бушлатах. Зачем им вообще оружие выдавали? Они могли дураков-немцев лифонами забить. За земляка Маховикова стыдно, что он снялся в таком откровенном лубке-клюкве. Когда же, наконец, появиться реализм в фильмах о Великой отечественной войне?!

P.S.
Lilla писал(а): Перейти к сообщению
Ни в коем случае не поддерживаю всеобщих стенаний по поводу несчастного еврейского народа-всем было тяжело, но мужество людей, защищавших мой город, заставляет с уважением относится к этой нации

Не сомневаюсь, что "ваш" город принадлежит им и сегодня. Впрочем, как и вся Россия, начиная с 1917-го.
sergei0907
Стаж: 8 лет 9 мес.
Сообщений: 154
Ratio: 9,384
100%
Откуда: Саха Якутия г.Нерюнгри
Нормальный фильм,Маховиков на высоте!
leonrom2013
Стаж: 6 лет
Сообщений: 213
Ratio: 0,38
69.71%
Откуда: Australia
australia.gif
На годовщину Победы показывать такую чушь, просто издевательство,да и b любой другой день тоже.
Anetanol
Стаж: 8 лет 10 мес.
Сообщений: 49
Ratio: 40,077
Раздал: 33,13 TB
100%
Откуда: Русь
ussr.gif
Не было никаких наркомовских 100 грамм.
Опять еврейский высер!
Задолбали Русских алкашами выставлять!

_________________
Я не россиянин.
Я Русский!
Был и останусь Русским!
Показать сообщения:   
Начать новую тему   Ответить на тему    Торрент-трекер NNM-Club -> Отечественные сериалы Часовой пояс: GMT + 3
Страница 1 из 1