Классический форум-трекер
canvas not supported
Нас вместе: 4 103 710

Идеальное убийство / Московский театр Сатиры (2010) SATRip


 
 
RSS
Начать новую тему   Ответить на тему    Торрент-трекер NNM-Club -> Театр и Музыкальное видео -> Театр
Автор Сообщение
farga ®
Покровитель талантов
 
Стаж: 10 лет 9 мес.
Сообщений: 974
Ratio: 2109,676
Раздал: 79,72 TB
Поблагодарили: 39079
100%
Откуда: из глубины сибирских руд
Идеальное убийство / Московский театр Сатиры (2010) SATRip
Жанр: иронический детектив, спектакль

Режиссер: Андрей Житинкин
Действующие лица и исполнители:
миссис Пайпер - Ольга Аросева
Бакстер - Илья Олейников
Мэри Сэлби - Светлана Антонова
Клер Морган - Наталья Селезнёва
Ричард Морган - Олег Вавилов
Кики Вильямс - Светлана Малюкова
Годдард - Иван Михайловский
Роберт Уэшли - Андрей Зенин

Описание:
Странная история произошла в офисе - уборщица миссис Пайпер нашла труп, а затем он исчез. Миссис Пайпер берется за расследование: находит множество улик, количество трупов увеличивается, подозреваются все.

Продолжительность: 02:04:16
Качество видео: SATRip

Видео: Xvid, 704x368, ~1478 kbps
Аудио: MP3, 2ch, 192 kbps
Общее
Полное имя : J:\Torrent-film\Idealnoe.ubijstvo.2010.SATRip.avi
Формат : AVI
Формат/Информация : Audio Video Interleave
Размер файла : 1,46 Гбайт
Продолжительность : 2 ч. 4 м.
Общий поток : 1680 Кбит/сек
Программа кодирования : VirtualDubMod 1.5.10.3 | www.virtualdub-fr.org || (build 2550/release)
Примечание : Rip by iriston

Видео
Идентификатор : 0
Формат : MPEG-4 Visual
Профиль формата : Advanced Simple@L5
Параметр BVOP формата : 1
Параметр QPel формата : Нет
Параметр GMC формата : Без точки перехода
Параметр матрицы формата : Выборочная
Идентификатор кодека : XVID
Идентификатор кодека/Подсказка : XviD
Продолжительность : 2 ч. 4 м.
Битрейт : 1479 Кбит/сек
Ширина : 704 пикселя
Высота : 368 пикселей
Соотношение сторон : 1,913
Частота кадров : 25,000 кадров/сек
Цветовое пространство : YUV
Субдискретизация насыщенности : 4:2:0
Битовая глубина : 8 бит
Тип развёртки : Прогрессивная
Метод сжатия : С потерями
Бит/(Пиксели*Кадры) : 0.228
Размер потока : 1,28 Гбайт (88%)
Библиотека кодирования : XviD 1.2.1 (UTC 2008-12-04)

Аудио
Идентификатор : 1
Формат : MPEG Audio
Версия формата : Version 1
Профиль формата : Layer 3
Идентификатор кодека : 55
Идентификатор кодека/Подсказка : MP3
Продолжительность : 2 ч. 4 м.
Вид битрейта : Постоянный
Битрейт : 192 Кбит/сек
Каналы : 2 канала
Частота : 48,0 КГц
Метод сжатия : С потерями
Размер потока : 171 Мбайт (11%)
Выравнивание : Соединение по промежуткам
Продолжительность промежутка : 40 мс. (1,00 видеокадр)
Время предзагрузки промежутка : 504 мс.
Библиотека кодирования : LAME3.98r
Настройки программы : -m s -V 4 -q 2 -lowpass 18.6 -b 192
Скриншоты:
/// Отреставрируем и восстановим всем Клубом! ///

Все одноименные релизы в Клубе

Время раздачи: с 18:00 до 23:30
[NNM-Club.ru]_Idealnoe.ubijstvo.2010.SATRip.avi.torrent
 Торрент: Платиновая раздача  Зарегистрирован
 
Скачать


Примагнититься
 Зарегистрирован:   30 Янв 2012 18:29:37
 Размер:   1,46 GB  (
 Рейтинг:   4,8 (Голосов: 104)
 Поблагодарили:   432
 Проверка:   Оформление проверено модератором 31 Янв 2012 13:41:36
Как cкачать  ·  Как раздать  ·  Правильно оформить  ·  Поднять ратио!  

_________________
百花齐放 - Пусть расцветают сто цветов.
Linkok
Стаж: 10 лет 2 мес.
Сообщений: 245
Ratio: 23,4
100%
ukraine.gif
спасибо =)

_________________
Каждая женщина должна помнить, что мужчина ищет спутницу своей жизни, а не её хозяйку.
kastet
Стаж: 10 лет
Сообщений: 374
Ratio: 0,863
100%
версия - http://nnmclub.to/forum/viewtopic.php?t=345667, с Куравлёвым, Чаурели, Юрским, Абдуловым, Ярмольником, ...
Покруче будет.
viktor561
Гость
kastet писал(а): Перейти к сообщению
версия - http://nnmclub.to/forum/viewtopic.php?t=345667, с Куравлёвым, Чаурели, Юрским, Абдуловым, Ярмольником, ...
Покруче будет.
не факт
Nany58
Стаж: 8 лет
Сообщений: 20
Ratio: 1,915
100%
Огромное спасибо автору за раздачу.
Я так поняла , что раздача возобновлена неспроста.
ПАМЯТИ Ильи Олейникова посвящается !!!
Пусть земля ему будет пухом...
dimichred
Стаж: 10 лет 6 мес.
Сообщений: 73
Ratio: 6,46
100%
russia.gif
Спасибо!!! ПАМЯТИ Ильи Олейникова посвящается !!!
Xomenator
Стаж: 12 лет 5 мес.
Сообщений: 15
Ratio: 2,765
10.68%
ukraine.gif
Будем помнить
DachnikMiha
Стаж: 8 лет 6 мес.
Сообщений: 31
Ratio: 1,09
0.19%
russia.gif
Спасибо. Светлой памяти...
KRM
Стаж: 9 лет 7 мес.
Сообщений: 31
Ratio: 26,402
100%
ukraine.gif
Скорбим...Будем помнить....
Димидуэндо
Uploader 100+
Стаж: 9 лет 1 мес.
Сообщений: 267
Ratio: 443,577
100%
Откуда: С улицы.
russia.gif
Жалко рано ушёл. В 65лет. Будем помнить по его сыграным ролям. Вечная память.

_________________
Вирус отличается от антивируса тем, что распространяется беcплатно!!!
alekslu
Стаж: 9 лет 7 мес.
Сообщений: 384
Ratio: 6,287
100%
Откуда: New York
usa.gif
Ушёл от Нас Талантливый Актёр.
Пусть земля Ему будет пухом.
-sacristan-
Стаж: 11 лет 9 мес.
Сообщений: 192
Ratio: 3,62
Поблагодарили: 217
100%
Откуда: Moscow
russia.gif
спасибо

_________________
"Россия – это загадка, завернутая в загадку, и помещенная внутрь загадки",- У.Черчилль
mirvital
Стаж: 9 лет 9 мес.
Сообщений: 215
Ratio: 6,582
100%
russia.gif
А теперь и памяти несравненной Ольги Аросевой посвящается! Вечная ей память!
Показать сообщения:   
Начать новую тему   Ответить на тему    Торрент-трекер NNM-Club -> Театр и Музыкальное видео -> Театр Часовой пояс: GMT + 3
Страница 1 из 1