Классический форум-трекер
canvas not supported
Нас вместе: 4 126 575

Анатомия человека для детей (2006) DVDRip


 
 
RSS
Начать новую тему   Ответить на тему    Торрент-трекер NNM-Club -> Видео -> Развивающее Видео для детей
Автор Сообщение
W.K. ®
Стаж: 9 лет 6 мес.
Сообщений: 639
Ratio: 246,155
Поблагодарили: 23467
100%
ussr.gif
Анатомия человека для детей (2006) DVDRip
Русское название: Анатомия человека для детей
Год выпуска: 2006
Производство: Россия
Жанр: Обучающий, Развивающий

Описание фильма:
Приготовься совершить путешествие не похожее ни на одно другое. Ты узнаешь о чудесах, которые происходят в твоем организме. Почему ты знаешь и умеешь так много: видишь, слышишь, бегаешь, думаешь, ешь, плачешь и смеешься? Авторы фильма в занимательной форме расскажут о том, как устроено твое тело.



Продолжительность: 00:43:15
Качество видео: DVDRip

Видеокодек: DivX 5
Битрейт видео: ~1725 Кбит/сек
Размер кадра: 704 х 528
Аудиокодек: MP3, 2.0
Битрейт аудио: 128 Кбит/сек
Общее
Полное имя : D:\Downloads\Анатомия человека для детей.avi
Формат : AVI
Формат/Информация : Audio Video Interleave
Размер файла : 575 Мбайт
Продолжительность : 43 м.
Общий поток : 1858 Кбит/сек
Жанр : Child's
Программа кодирования : VirtualDubMod 1.5.10.2 (build 2540/release)
Формат оригинала/Имя : Movie
Примечание : DVDRip by gera

Видео
Идентификатор : 0
Формат : MPEG-4 Visual
Параметр BVOP формата : Нет
Параметр QPel формата : Нет
Параметр GMC формата : Без точки перехода
Параметр матрицы формата : Default (MPEG)
Идентификатор кодека : DX50
Идентификатор кодека/Подсказка : DivX 5
Продолжительность : 43 м.
Битрейт : 1725 Кбит/сек
Ширина : 704 пикс.
Высота : 528 пикс.
Соотношение сторон : 4:3
Частота кадров : 25,000 кадр/сек
Цветовое пространство : YUV
Подвыборка цветности : 4:2:0
Битовая глубина : 8 бит
Тип развёртки : Прогрессивная
Метод сжатия : С потерями
Бит/(Пиксели*Кадры) : 0.186
Размер потока : 534 Мбайт (93%)
Библиотека кодирования : DivX 6.8.5 (UTC 2009-08-20)

Аудио
Идентификатор : 1
Формат : MPEG Audio
Версия формата : Version 1
Профиль формата : Layer 3
Режим : Joint stereo
Идентификатор кодека : 55
Идентификатор кодека/Подсказка : MP3
Продолжительность : 43 м.
Вид битрейта : Постоянный
Битрейт : 128 Кбит/сек
Каналы : 2 канала
Частота : 48,0 КГц
Метод сжатия : С потерями
Размер потока : 39,6 Мбайт (7%)
Выравнивание : Соединение по промежуткам
Продолжительность промежутка : 1000 мс. (24,99 видеокадров)
Время предзагрузки промежутка : 1008 ms




Время раздачи: с 23:00 до 07:00, днем по мере возможности
Приятного просмотра! :пока:
[NNM-Club.ru]_Anatomiya cheloveka dlya detey.avi.torrent
 Торрент: Платиновая раздача  Зарегистрирован
 
Скачать


Примагнититься
 Зарегистрирован:   30 Янв 2012 22:12:48
 Размер:   575 MB  (
 Рейтинг:   4,8 (Голосов: 56)
 Поблагодарили:   315
 Проверка:   Оформление проверено модератором 31 Янв 2012 05:28:34
Как cкачать  ·  Как раздать  ·  Правильно оформить  ·  Поднять ратио!  

_________________
khmarnik
Стаж: 10 лет 9 мес.
Сообщений: 197
Ratio: 4,015
100%
спасибо. в феврале по Оказанию первой медицинской помощи изучаем тему "Анатомия и физиология человека" - прекрасная альтернатива учебному фильму! :умничает:
vasya 444
Стаж: 8 лет 7 мес.
Сообщений: 9
Ratio: 3,799
0%
Хорошей обучающий мульт для детей дошкольного возраста
чио
Стаж: 9 лет 10 мес.
Сообщений: 21
Ratio: 6,154
Поблагодарили: 333
100%
ukraine.gif
отличный мультфильм.
Показать сообщения:   
Начать новую тему   Ответить на тему    Торрент-трекер NNM-Club -> Видео -> Развивающее Видео для детей Часовой пояс: GMT + 3
Страница 1 из 1