Классический форум-трекер
canvas not supported
Нас вместе: 4 079 270

Летняя поездка к морю (1978) DVDRip


 
 
RSS
Начать новую тему   Ответить на тему    Торрент-трекер NNM-Club -> Классика кино и Старые фильмы до 90-х -> Старые Отечественные Фильмы (HD*Rip/LQ, DVDRip, SATRip, VHSRip)
Автор Сообщение
ornellit ®
Стаж: 9 лет 11 мес.
Сообщений: 1754
Ratio: 204,68
Поблагодарили: 96680
100%
ukraine.gif
Летняя поездка к морю (1978) DVDRip
Русское название: Летняя поездка к морю
Год выпуска: 1978
Жанр: Драма, Военный

Описание фильма:
Летом 1942 года из Архангельска на острова Новой Земли отправляется экспедиция школьников, чтобы оборудовать продовольственные базы для потерпевших бедствие моряков. Неожиданно на острове появляются фашисты.

Режиссер: Семен Аранович
Актеры: Николай Скоробогатов, Анатолий Горин, Игорь Фокин, Александр Куренной, Виктор Проскурин, Андрей Зотов, И. Матвеев, Дмитрий Зарубин, В. Болтов, Татьяна Кравченко, Виктор Речман, Всеволод Гаврилов

Продолжительность: 01:23:45



Видеокодек: DivX 5
Битрейт видео: ~2200 kb/s
Размер кадра: 648 х 512
Качество видео: DVDRip
Аудиокодек: MP3
Битрейт аудио: 112 kb/s, 1 ch
Общее
Полное имя : Летняя поездка к морю.1980.DVDRip.[nnm-club.me].avi
Формат : AVI
Формат/Информация : Audio Video Interleave
Размер файла : 1,37 Гбайт
Продолжительность : 1 ч. 24 м.
Общий поток : 2322 Кбит/сек
Программа кодирования : VirtualDubMod 1.5.10.2 (build 2542/release)
Библиотека кодирования : VirtualDubMod build 2542/release

Видео
Идентификатор : 0
Формат : MPEG-4 Visual
Параметр BVOP формата : 3
Параметр QPel формата : Нет
Параметр GMC формата : Без точки перехода
Параметр матрицы формата : Default (H.263)
Режим смешивания : Сжатый битовый поток
Идентификатор кодека : DX50
Идентификатор кодека/Подсказка : DivX 5
Продолжительность : 1 ч. 24 м.
Битрейт : 2200 Кбит/сек
Ширина : 648 пикселей
Высота : 512 пикселей
Соотношение сторон : 5:4
Частота кадров : 25,000 кадров/сек
Цветовое пространство : YUV
Субдискретизация насыщенности : 4:2:0
Битовая глубина : 8 бит
Тип развёртки : Прогрессивная
Метод сжатия : С потерями
Бит/(Пиксели*Кадры) : 0.265
Размер потока : 1,30 Гбайт (95%)
Библиотека кодирования : DivX 6.8.0 (UTC 2007-12-04)

Аудио
Идентификатор : 1
Формат : MPEG Audio
Версия формата : Version 1
Профиль формата : Layer 3
Идентификатор кодека : 55
Идентификатор кодека/Подсказка : MP3
Продолжительность : 1 ч. 24 м.
Вид битрейта : Постоянный
Битрейт : 112 Кбит/сек
Каналы : 1 канал
Частота : 48,0 КГц
Метод сжатия : С потерями
Размер потока : 67,7 Мбайт (5%)
Выравнивание : Соединение по промежуткам
Продолжительность промежутка : 40 мс. (1,00 видеокадр)
Время предзагрузки промежутка : 504 мс.
Библиотека кодирования : LAME3.97
Настройки программы : -m m -V 4 -q 0 -b 112
Скриншоты:


Время раздачи: С 13:00 до 21:00 (до 5 скачавших)
Letnyaya poezdka k moryu.1980.DVDRip.[nnm-club.ru].avi.torrent
 Торрент: Золотая раздача  Зарегистрирован
 
Зарегистрируйтесь и скачайте торрент!
14 KB
Free Leech
Примагнититься
 Зарегистрирован:   01 Фев 2012 01:06:08
 Размер:   1,37 GB  (
 Рейтинг:   4,6 (Голосов: 17)
 Поблагодарили:   53
 Проверка:   Оформление проверено модератором 01 Фев 2012 01:37:35
Как cкачать  ·  Как раздать  ·  Правильно оформить  ·  Поднять ратио!  
andris2
Стаж: 9 лет 7 мес.
Сообщений: 1453
Ratio: 2,251
Поблагодарили: 34
100%
russia.gif
Семен Аранович - любимый режиссер. Запомнился еще по фильму "Торпедоносцы" - прекрасный и талантливый фильм. Посмотрим и этот.
abracadabr
Стаж: 10 лет 6 мес.
Сообщений: 666
Ratio: 11,096
100%
Цитата:
Летом 1942 года из Архангельска на острова Новой Земли отправляется экспедиция школьников, ... Неожиданно на острове появляются фашисты.

Да, в 1942 это было НЕОЖИДАННО.
Альтернативная история?

Может быть, год 1941?
И ещё бардак с годами - год выпуска фильма в названии раздачи 1978, в имени файла - 1980.
surikatx
Стаж: 7 лет 10 мес.
Сообщений: 61
Ratio: 8,089
Поблагодарили: 408
100%
прекрасный фильм
Показать сообщения:   
Начать новую тему   Ответить на тему    Торрент-трекер NNM-Club -> Классика кино и Старые фильмы до 90-х -> Старые Отечественные Фильмы (HD*Rip/LQ, DVDRip, SATRip, VHSRip) Часовой пояс: GMT + 3
Страница 1 из 1