Классический форум-трекер
canvas not supported
Нас вместе: 4 079 097

Звериный отряд. Код Марко Поло / Cuccioli e il codice di Marco Polo (2010) DVD5


 
 
RSS
Начать новую тему   Ответить на тему    Торрент-трекер NNM-Club -> Мультфильмы -> Зарубежные Мультфильмы для детей
Автор Сообщение
Alex_Fors ®
Стаж: 9 лет
Сообщений: 387
Ratio: 102,587
Поблагодарили: 18401
100%
portugal.gif
Звериный отряд. Код Марко Поло / Cuccioli e il codice di Marco Polo (2010) DVD5
Русское название: Звериный отряд. Код Марко Поло
Оригинальное название: Cuccioli e il codice di Marco Polo
Производство: Италия
Год выпуска: 2010
Жанр: Мультфильм

Перевод: Многоголосый закадровый, профессиональный
Вид субтитров: Отсутствуют
Дополнительные материалы: Отсутствуют


Дата мировой премьеры: 22 января 2010
Дата выхода DVD/Blu-Ray релиза: 19 января 2012

Режиссер: Франческо Манфио, Sergio Manfio
Персонажи: Gerolamo Alchieri, Пино Аммендола, Tiziana Avarista, Луиджи Ферраро, Паола Джаннетти, Laura Lenghi, Паоло Ломбарди, Franco Mannella, Эдоардо Невола, Гиги Роза

Описание фильма:
Злая ведьма по имени Ворона ненавидит Венецию. Настолько, что хочет с помощью древней и ужасной магии, обретенной в скрытой пещере гималайских гор, осушить каналы и превратить прекрасный город в подобие огромного мегаполиса. Единственный способ противостоять колдунье — найти код Марко Поло, который содержит секретную информацию о расположении венецианского Дворца Магии.

Легенда гласит, что именно там спрятаны контрзаклинания, способные победить ведьму и развеять чёрную магию. Такое задание по зубам только Звериному Отряду — подразделению особого назначения, состоящему из кота Холли, утки Дивы, кролика Шляпника и лягушонка Пио…

Продолжительность: 01:30:18
Качество видео: DVD5

Видеокодек: MPEG-2
Битрейт видео: ~5819 kb/s
Размер кадра: PAL 16:9 (720x576) VBR Auto Letterboxed
Аудио: (Dolby AC3, 2 ch) ~192 kb/s |Русский,многоголосый закадровый, профессиональный|
СЭМПЛ
Title: Звериный отряд. Код Марко Поло.2010.DVD-5
Size: 3.86 Gb ( 4 049 010,00 KBytes ) - DVD-5
Enabled regions: 1, 2, 3, 4, 5, 6, 7, 8

VTS_01 :
Play Length: 00:00:16+01:30:18
Video: PAL 16:9 (720x576) VBR, Auto Letterboxed
Audio:
Russian (Dolby AC3, 2 ch)

* Menus Information *

VIDEO_TS Menu
Video:
NTSC 4:3 (720x480) VBR
Auto Pan&Scan, Auto Letterboxed
Russian Language Unit :
Title Menu

VTS_01 Menu
Video:
PAL 16:9 (720x576) VBR
Auto Letterboxed
Audio:
Not specified (Dolby AC3, 2 ch)
Russian Language Unit :
Root Menu
Формат : MPEG-PS
Размер файла : 1024 Мбайт
Продолжительность : 23 м.
Общий поток : 6133 Кбит/сек

Видео
Идентификатор : 224 (0xE0)
Формат : MPEG Video
Версия формата : Version 2
Профиль формата : Main@Main
Параметр BVOP формата : Да
Параметр матрицы формата : Выборочная
Параметр GOP формата : M=3, N=15
Продолжительность : 23 м.
Вид битрейта : Переменный
Битрейт : 5819 Кбит/сек
Максимальный битрейт : 9000 Кбит/сек
Ширина : 720 пикселей
Высота : 576 пикселей
Соотношение сторон : 16:9
Частота кадров : 25,000 кадров/сек
Стандарт вещания : PAL
Цветовое пространство : YUV
Субдискретизация насыщенности : 4:2:0
Битовая глубина : 8 бит
Тип развёртки : Прогрессивная
Метод сжатия : С потерями
Бит/(Пиксели*Кадры) : 0.561
Размер потока : 971 Мбайт (95%)

Аудио
Идентификатор : 189 (0xBD)-128 (0x80)
Формат : AC-3
Формат/Информация : Audio Coding 3
Расширение режима : CM (complete main)
Режим смешивания : DVD-Video
Продолжительность : 23 м.
Вид битрейта : Постоянный
Битрейт : 192 Кбит/сек
Каналы : 2 канала
Расположение каналов : Front: L R
Частота : 48,0 КГц
Битовая глубина : 16 бит
Метод сжатия : С потерями
Задержка видео : -680 мс.
Размер потока : 32,1 Мбайт (3%)

Меню
Скриншоты:


Время раздачи: 18:00-21:00 до 5 скачавших
[NNM-Club.ru]_Zverinyiy otryad. Kod Marko Polo.2010.DVD-5.torrent
 Торрент: Платиновая раздача  Зарегистрирован
 
Скачать


Примагнититься
 Зарегистрирован:   01 Фев 2012 17:56:59
 Размер:   3,86 GB  (
 Рейтинг:   4,5 (Голосов: 10)
 Поблагодарили:   49
 Проверка:   Оформление проверено модератором 02 Фев 2012 07:58:57
Как cкачать  ·  Как раздать  ·  Правильно оформить  ·  Поднять ратио!  
Загрузка...
Показать сообщения:   
Начать новую тему   Ответить на тему    Торрент-трекер NNM-Club -> Мультфильмы -> Зарубежные Мультфильмы для детей Часовой пояс: GMT + 3
Страница 1 из 1