Интеллигентный торрент-трекер
canvas not supported
Нас вместе: 4 096 119

W.A.S.P. - Live At The Lyceum, London (1984) DVD5


 
 
RSS
Начать новую тему   Ответить на тему    Торрент-трекер NNM-Club -> Театр и Музыкальное видео -> Концерты (DVD)
Автор Сообщение
Dark Spirit Multimedia ®
Стаж: 9 лет 2 мес.
Сообщений: 461
Ratio: 8,48
Поблагодарили: 5794
100%
Откуда: Калин​ингра​д​
russia.gif
W.A.S.P. - Live At The Lyceum, London (1984) DVD5
Производство: США, Capital Records lnc
Жанр: Heavy Metal

Описание:
Концерт группы W.A.S.P. в Лондоне - сентябрь 1984 года, полная версия. Далее без комментариев, так как эмоции зашкаливают !!!

Треклист:
1. On Your Knees
2. The Flame
3. Hellion
4. L.O.V.E. Machine
5. Sleeping (In the Fire)
6. Tormentor
7. School Daze
8. The Torture Never Stops
9. I Wanna Be Somebody
10. Animal (F... Like a Beast)

Продолжительность: 00:57:35
Качество видео: DVD5
Язык: Английский
Субтитры: Отсутствуют

Видео: MPEG2, NTSC 4:3 (720x480), VBR ~9000 kbps
Аудио #1: AC3, 2 ch, 256 kbps
Аудио #2: PCM, 2 ch, 1536 kbps
Blackie Lawless - bass, vocals
Chris Holmes - guitar
Randy Piper - guitar
Steve Riley - drums
Общее
Полное имя : E:\NNM-CLUB\W.A.S.P. - Live At The Lyceum, London\VIDEO_TS\VIDEO_TS.BUP
Формат : DVD Video
Профиль формата : Menu
Размер файла : 12,0 Кбайт
Режим общего битрейта : Переменный

Видео
Идентификатор : 224 (0xE0)
Формат : MPEG Video
Версия формата : Version 2
Вид битрейта : Переменный
Ширина : 720 пикселей
Высота : 480 пикселей
Соотношение сторон : 4:3
Частота кадров : 29,970 кадров/сек
Стандарт вещания : NTSC
Метод сжатия : С потерями

Общее
Полное имя : E:\NNM-CLUB\W.A.S.P. - Live At The Lyceum, London\VIDEO_TS\VIDEO_TS.IFO
Формат : DVD Video
Профиль формата : Menu
Размер файла : 12,0 Кбайт
Режим общего битрейта : Переменный

Видео
Идентификатор : 224 (0xE0)
Формат : MPEG Video
Версия формата : Version 2
Вид битрейта : Переменный
Ширина : 720 пикселей
Высота : 480 пикселей
Соотношение сторон : 4:3
Частота кадров : 29,970 кадров/сек
Стандарт вещания : NTSC
Метод сжатия : С потерями

Общее
Полное имя : E:\NNM-CLUB\W.A.S.P. - Live At The Lyceum, London\VIDEO_TS\VIDEO_TS.VOB
Формат : MPEG-PS
Размер файла : 46,0 Кбайт
Продолжительность : 33 мс.
Режим общего битрейта : Переменный
Общий поток : 11,4 Мбит/сек

Видео
Идентификатор : 224 (0xE0)
Формат : MPEG Video
Версия формата : Version 2
Профиль формата : Main@Main
Параметр BVOP формата : Нет
Параметр матрицы формата : По умолчанию
Продолжительность : 33 мс.
Вид битрейта : Переменный
Максимальный битрейт : 9000 Кбит/сек
Ширина : 720 пикселей
Высота : 480 пикселей
Соотношение сторон : 4:3
Частота кадров : 29,970 кадров/сек
Стандарт вещания : NTSC
Цветовое пространство : YUV
Субдискретизация насыщенности : 4:2:0
Битовая глубина : 8 бит
Тип развёртки : Прогрессивная
Порядок развёртки : Верхнее поле первое
Метод сжатия : С потерями

Меню

Общее
Полное имя : E:\NNM-CLUB\W.A.S.P. - Live At The Lyceum, London\VIDEO_TS\VTS_01_0.BUP
Формат : DVD Video
Профиль формата : Program
Размер файла : 50,0 Кбайт
Продолжительность : 57 м.
Режим общего битрейта : Переменный
Общий поток : 118 бит/сек

Видео
Идентификатор : 224 (0xE0)
Формат : MPEG Video
Версия формата : Version 2
Продолжительность : 57 м.
Вид битрейта : Переменный
Ширина : 704 пикселя
Высота : 480 пикселей
Соотношение сторон : 4:3
Частота кадров : 29,970 кадров/сек
Стандарт вещания : NTSC
Метод сжатия : С потерями

Аудио #1
Идентификатор : 128 (0x80)
Формат : AC-3
Формат/Информация : Audio Coding 3
Продолжительность : 57 м.
Каналы : 2 канала
Частота : 48,0 КГц
Метод сжатия : С потерями
Язык : English

Аудио #2
Идентификатор : 1 (0x1)
Формат : PCM
Продолжительность : 57 м.
Каналы : 2 канала
Частота : 48,0 КГц
Язык : English

Меню #1
Продолжительность : 57 м.
00:00:00.000 : Chapter 1
00:00:12.000 : Chapter 2
00:04:48.000 : Chapter 3
00:08:43.000 : Chapter 4
00:13:20.000 : Chapter 5
00:17:25.000 : Chapter 6
00:23:08.000 : Chapter 7
00:32:39.000 : Chapter 8
00:41:35.000 : Chapter 9
00:46:43.000 : Chapter 10
00:52:35.000 : Chapter 11
List (Audio) : 0 / 1

Меню #2
Продолжительность : 10 с.
00:00:00.000 : Chapter 1
List (Audio) : 0 / 1

Меню #3

Общее
Полное имя : E:\NNM-CLUB\W.A.S.P. - Live At The Lyceum, London\VIDEO_TS\VTS_01_0.IFO
Формат : DVD Video
Профиль формата : Program
Размер файла : 50,0 Кбайт
Продолжительность : 57 м.
Режим общего битрейта : Переменный
Общий поток : 118 бит/сек

Видео
Идентификатор : 224 (0xE0)
Формат : MPEG Video
Версия формата : Version 2
Продолжительность : 57 м.
Вид битрейта : Переменный
Ширина : 704 пикселя
Высота : 480 пикселей
Соотношение сторон : 4:3
Частота кадров : 29,970 кадров/сек
Стандарт вещания : NTSC
Метод сжатия : С потерями

Аудио #1
Идентификатор : 128 (0x80)
Формат : AC-3
Формат/Информация : Audio Coding 3
Продолжительность : 57 м.
Каналы : 2 канала
Частота : 48,0 КГц
Метод сжатия : С потерями
Язык : English

Аудио #2
Идентификатор : 1 (0x1)
Формат : PCM
Продолжительность : 57 м.
Каналы : 2 канала
Частота : 48,0 КГц
Язык : English

Меню #1
Продолжительность : 57 м.
00:00:00.000 : Chapter 1
00:00:12.000 : Chapter 2
00:04:48.000 : Chapter 3
00:08:43.000 : Chapter 4
00:13:20.000 : Chapter 5
00:17:25.000 : Chapter 6
00:23:08.000 : Chapter 7
00:32:39.000 : Chapter 8
00:41:35.000 : Chapter 9
00:46:43.000 : Chapter 10
00:52:35.000 : Chapter 11
List (Audio) : 0 / 1

Меню #2
Продолжительность : 10 с.
00:00:00.000 : Chapter 1
List (Audio) : 0 / 1

Меню #3

Общее
Полное имя : E:\NNM-CLUB\W.A.S.P. - Live At The Lyceum, London\VIDEO_TS\VTS_01_0.VOB
Формат : MPEG-PS
Размер файла : 71,0 Мбайт
Продолжительность : 1 м. 0 с.
Режим общего битрейта : Переменный
Общий поток : 9901 Кбит/сек

Видео
Идентификатор : 224 (0xE0)
Формат : MPEG Video
Версия формата : Version 2
Профиль формата : Main@Main
Параметр BVOP формата : Да
Параметр матрицы формата : По умолчанию
Параметр GOP формата : M=3, N=15
Продолжительность : 1 м. 0 с.
Вид битрейта : Переменный
Битрейт : 9448 Кбит/сек
Максимальный битрейт : 6000 Кбит/сек
Ширина : 720 пикселей
Высота : 480 пикселей
Соотношение сторон : 4:3
Частота кадров : 29,970 кадров/сек
Стандарт вещания : NTSC
Цветовое пространство : YUV
Субдискретизация насыщенности : 4:2:0
Битовая глубина : 8 бит
Тип развёртки : Чересстрочная
Порядок развёртки : Нижнее поле первое
Метод сжатия : С потерями
Бит/(Пиксели*Кадры) : 0.912
Размер потока : 67,8 Мбайт (95%)

Аудио
Идентификатор : 189 (0xBD)-128 (0x80)
Формат : AC-3
Формат/Информация : Audio Coding 3
Расширение режима : CM (complete main)
Режим смешивания : DVD-Video
Продолжительность : 1 м. 0 с.
Вид битрейта : Постоянный
Битрейт : 256 Кбит/сек
Каналы : 2 канала
Расположение каналов : Front: L R
Частота : 48,0 КГц
Битовая глубина : 16 бит
Метод сжатия : С потерями
Размер потока : 1,84 Мбайт (3%)

Текст
Идентификатор : 189 (0xBD)-32 (0x20)
Формат : RLE
Формат/Информация : Run-length encoding
Режим смешивания : DVD-Video

Меню

Общее
Полное имя : E:\NNM-CLUB\W.A.S.P. - Live At The Lyceum, London\VIDEO_TS\VTS_01_1.VOB
Формат : MPEG-PS
Размер файла : 954 Мбайт
Продолжительность : 21 м.
Режим общего битрейта : Переменный
Общий поток : 6153 Кбит/сек

Видео
Идентификатор : 224 (0xE0)
Формат : MPEG Video
Версия формата : Version 2
Профиль формата : Main@Main
Параметр BVOP формата : Да
Параметр матрицы формата : Выборочная
Параметр GOP формата : M=3, N=15
Продолжительность : 21 м.
Вид битрейта : Переменный
Битрейт : 4239 Кбит/сек
Максимальный битрейт : 9555 Кбит/сек
Ширина : 704 пикселя
Высота : 480 пикселей
Соотношение сторон : 4:3
Частота кадров : 29,970 кадров/сек
Стандарт вещания : NTSC
Цветовое пространство : YUV
Субдискретизация насыщенности : 4:2:0
Битовая глубина : 8 бит
Тип развёртки : Чересстрочная
Порядок развёртки : Верхнее поле первое
Метод сжатия : С потерями
Бит/(Пиксели*Кадры) : 0.419
Размер потока : 657 Мбайт (69%)

Аудио #1
Идентификатор : 189 (0xBD)-128 (0x80)
Формат : AC-3
Формат/Информация : Audio Coding 3
Расширение режима : CM (complete main)
Режим смешивания : DVD-Video
Продолжительность : 21 м.
Вид битрейта : Постоянный
Битрейт : 256 Кбит/сек
Каналы : 2 канала
Расположение каналов : Front: L R
Частота : 48,0 КГц
Битовая глубина : 16 бит
Метод сжатия : С потерями
Задержка видео : -66 мс.
Размер потока : 39,7 Мбайт (4%)

Аудио #2
Идентификатор : 189 (0xBD)-161 (0xA1)
Формат : PCM
Параметр Endianness формата : Big
Параметр Sign формата : Signed
Режим смешивания : DVD-Video
Продолжительность : 21 м.
Вид битрейта : Постоянный
Битрейт : 1536 Кбит/сек
Каналы : 2 канала
Расположение каналов : Front: L R
Частота : 48,0 КГц
Битовая глубина : 16 бит
Задержка видео : -66 мс.
Размер потока : 238 Мбайт (25%)

Текст
Идентификатор : 224 (0xE0)-DVD-2
Формат : EIA-608
Режим смешивания : DVD-Video
Режим смешивания, доп. информаци : Muxed in Video #1
Вид битрейта : Постоянный
Размер потока : 0,00 байт (0%)

Меню

Общее
Полное имя : E:\NNM-CLUB\W.A.S.P. - Live At The Lyceum, London\VIDEO_TS\VTS_01_2.VOB
Формат : MPEG-PS
Размер файла : 954 Мбайт
Продолжительность : 21 м.
Режим общего битрейта : Переменный
Общий поток : 6265 Кбит/сек

Видео
Идентификатор : 224 (0xE0)
Формат : MPEG Video
Версия формата : Version 2
Профиль формата : Main@Main
Параметр BVOP формата : Да
Параметр матрицы формата : Выборочная
Параметр GOP формата : M=3, N=15
Продолжительность : 21 м.
Вид битрейта : Переменный
Битрейт : 4349 Кбит/сек
Максимальный битрейт : 9555 Кбит/сек
Ширина : 704 пикселя
Высота : 480 пикселей
Соотношение сторон : 4:3
Частота кадров : 29,970 кадров/сек
Стандарт вещания : NTSC
Цветовое пространство : YUV
Субдискретизация насыщенности : 4:2:0
Битовая глубина : 8 бит
Тип развёртки : Чересстрочная
Порядок развёртки : Верхнее поле первое
Метод сжатия : С потерями
Бит/(Пиксели*Кадры) : 0.429
Размер потока : 662 Мбайт (69%)

Аудио #1
Идентификатор : 189 (0xBD)-128 (0x80)
Формат : AC-3
Формат/Информация : Audio Coding 3
Расширение режима : CM (complete main)
Режим смешивания : DVD-Video
Продолжительность : 21 м.
Вид битрейта : Постоянный
Битрейт : 256 Кбит/сек
Каналы : 2 канала
Расположение каналов : Front: L R
Частота : 48,0 КГц
Битовая глубина : 16 бит
Метод сжатия : С потерями
Задержка видео : -141 мс.
Размер потока : 39,0 Мбайт (4%)

Аудио #2
Идентификатор : 189 (0xBD)-161 (0xA1)
Формат : PCM
Параметр Endianness формата : Big
Параметр Sign формата : Signed
Режим смешивания : DVD-Video
Продолжительность : 21 м.
Вид битрейта : Постоянный
Битрейт : 1536 Кбит/сек
Каналы : 2 канала
Расположение каналов : Front: L R
Частота : 48,0 КГц
Битовая глубина : 16 бит
Задержка видео : -279 мс.
Размер потока : 234 Мбайт (25%)

Меню

Общее
Полное имя : E:\NNM-CLUB\W.A.S.P. - Live At The Lyceum, London\VIDEO_TS\VTS_01_3.VOB
Формат : MPEG-PS
Размер файла : 653 Мбайт
Продолжительность : 14 м.
Режим общего битрейта : Переменный
Общий поток : 6292 Кбит/сек

Видео
Идентификатор : 224 (0xE0)
Формат : MPEG Video
Версия формата : Version 2
Профиль формата : Main@Main
Параметр BVOP формата : Да
Параметр матрицы формата : Выборочная
Параметр GOP формата : M=3, N=15
Продолжительность : 14 м.
Вид битрейта : Переменный
Битрейт : 4374 Кбит/сек
Максимальный битрейт : 9555 Кбит/сек
Ширина : 704 пикселя
Высота : 480 пикселей
Соотношение сторон : 4:3
Частота кадров : 29,970 кадров/сек
Стандарт вещания : NTSC
Цветовое пространство : YUV
Субдискретизация насыщенности : 4:2:0
Битовая глубина : 8 бит
Тип развёртки : Чересстрочная
Порядок развёртки : Верхнее поле первое
Метод сжатия : С потерями
Бит/(Пиксели*Кадры) : 0.432
Размер потока : 454 Мбайт (70%)

Аудио #1
Идентификатор : 189 (0xBD)-128 (0x80)
Формат : AC-3
Формат/Информация : Audio Coding 3
Расширение режима : CM (complete main)
Режим смешивания : DVD-Video
Продолжительность : 14 м.
Вид битрейта : Постоянный
Битрейт : 256 Кбит/сек
Каналы : 2 канала
Расположение каналов : Front: L R
Частота : 48,0 КГц
Битовая глубина : 16 бит
Метод сжатия : С потерями
Задержка видео : -170 мс.
Размер потока : 26,6 Мбайт (4%)

Аудио #2
Идентификатор : 189 (0xBD)-161 (0xA1)
Формат : PCM
Параметр Endianness формата : Big
Параметр Sign формата : Signed
Режим смешивания : DVD-Video
Продолжительность : 14 м.
Вид битрейта : Постоянный
Битрейт : 1536 Кбит/сек
Каналы : 2 канала
Расположение каналов : Front: L R
Частота : 48,0 КГц
Битовая глубина : 16 бит
Задержка видео : -290 мс.
Размер потока : 160 Мбайт (24%)

Меню
Title: W.A.S.P. - Live At The Lyceum, London
Size: 2.57 Gb ( 2 695 560,00 KBytes ) - DVD-5
Enabled regions: 1, 2, 3, 4, 5, 6, 7, 8

VTS_01 :
Play Length: 00:57:25+00:00:10
Video: NTSC 4:3 (704x480) VBR
Audio:
English (Dolby AC3, 2 ch)
English (LinearPCM, 2 ch)

* Menus Information *

VIDEO_TS Menu
Video:
NTSC 4:3 (720x480) VBR
English Language Unit :
Title Menu

VTS_01 Menu
Video:
NTSC 4:3 (720x480) VBR
Audio:
Not specified (Dolby AC3, 2 ch)
English Language Unit :
Root Menu


"Здесь" говорится, что концерт был записан 24 октября 1984 года, и это неправильно - фактическая Дата записи 24 сентября 1984 года.
Скриншоты:


Все одноименные релизы в Клубе
Реставрация 24.05.2018 от: SanKar52
[NNM-Club.me]_[NNM-Club.ru]_W.A.S.P. - Live At The Lyceum, London.torrent
 Торрент: Платиновая раздача  Зарегистрирован
 
Скачать


Примагнититься
 Зарегистрирован:   25 Май 2018 22:13:37
 Размер:   2,57 GB  (
 Рейтинг:   4,9 (Голосов: 48)
 Поблагодарили:   174
 Проверка:   Оформление проверено модератором 25 Май 2018 22:18:39
Как cкачать  ·  Как раздать  ·  Правильно оформить  ·  Поднять ратио!  

_________________

kmk
Стаж: 10 лет 9 мес.
Сообщений: 1620
Ratio: 5,968
Поблагодарили: 10041
100%
poland.gif
Судя по качеству видео, это VHS-Rip? Судя по обложке, это пиратка? Но всеравно, спасибо!

Добавлено спустя 4 часа 43 минуты 5 секунд:

Хороший концерт, понравился. Спасибо! Кстати, качество видео немного лучше, чем на скринах. ;)
mirron
Стаж: 8 лет 8 мес.
Сообщений: 23
Ratio: 2,674
100%
Настоящий WASP! Наконец-то приемлемое качество изображения и звука. Я тащился, хотя помню эти песни наизусть. Приятно они сыграли. Первый раз увидел, как Блэки кидался сырим мясом и резал тетку, раньше только читал про это. Штаны у них классные, с вентиляцией сзади :) На недавнем концерте в Москве таких не надевали и мяса не было... А главное, F**c Like a Beast! Большое спасибо автору!!!
Dark Spirit Multimedia ®
Стаж: 9 лет 2 мес.
Сообщений: 461
Ratio: 8,48
Поблагодарили: 5794
100%
Откуда: Калин​ингра​д​
russia.gif
mirron писал(а): Перейти к сообщению
Настоящий WASP! Наконец-то приемлемое качество изображения и звука. Я тащился, хотя помню эти песни наизусть. Приятно они сыграли. Первый раз увидел, как Блэки кидался сырим мясом и резал тетку, раньше только читал про это. Штаны у них классные, с вентиляцией сзади :) На недавнем концерте в Москве таких не надевали и мяса не было... А главное, F**c Like a Beast! Большое спасибо автору!!!


Спасибо за комментарий, это их лучший концерт. Только настоящий фан W.A.S.P. так отпишет !!! :стеб:
Djozef75
Стаж: 5 лет 9 мес.
Сообщений: 18
Ratio: 38,255
Раздал: 396 GB
100%
Откуда: Беларусь.
belarus.gif
Спасибо за концерт! Он уменя был кокдато на vhs.
Crazy​Daimo​n​
Стаж: 9 лет 6 мес.
Сообщений: 112
Ratio: 20,253
5.77%
latvia.gif
Разаздаю с другого ресурса. Сейчас сделаю ре-хэш и подключусь. Канал широкий - цепляйтесь!!!
Ивва
Стаж: 3 года 5 мес.
Сообщений: 35
Ratio: 36,867
97.12%
russia.gif
Спасибо релизеру и всем поддержавшим раздачу.
Dubchek
Стаж: 7 лет 1 мес.
Сообщений: 464
Ratio: 19,992
100%
Откуда: Саратов
russia.gif

Спасибо! В том возрасте всё воспринималось несколько иначе. Всё это мясо W.A.S.P. напомнило KISS и Alice Kooper. Когда-то занимался коллекционированием, а вот сейчас всё приелось, усталость какая-то. А в общем - театр преисподней, хочется что-то в направлении Jesus Christ Superstar... Жаль нет титров перевода.

_________________
Живет на свете Баобаб — как ободрение всем живущим.
corre​ctor6​5​
Стаж: 7 лет 4 мес.
Сообщений: 645
Ratio: 21,559
Поблагодарили: 5985
100%
ussr.gif
Dubchek
Цитата:
Alice Kooper

Уважаемый Чех, Купер хоть с 48 года, но пишет свою фамилию ч/з С
Спасибо за гифку.
Dubchek
Стаж: 7 лет 1 мес.
Сообщений: 464
Ratio: 19,992
100%
Откуда: Саратов
russia.gif
corrector65 писал(а): Перейти к сообщению
Dubchek
Цитата:
Alice Kooper

Уважаемый Чех, Купер хоть с 48 года, но пишет свою фамилию ч/з С
Спасибо за гифку.

Прошу прощения, просто описка, впопыхах...

_________________
Живет на свете Баобаб — как ободрение всем живущим.
Показать сообщения:   
Начать новую тему   Ответить на тему    Торрент-трекер NNM-Club -> Театр и Музыкальное видео -> Концерты (DVD) Часовой пояс: GMT + 3
Страница 1 из 1