Классический форум-трекер
canvas not supported
Нас вместе: 4 094 043

Ментовские войны 6 (16 серий из 16) (2012) SATRip


Страницы:  1, 2, 3, 4, 5  След. 
 
RSS
Начать новую тему   Ответить на тему    Торрент-трекер NNM-Club -> Отечественные сериалы -> Ментовские войны
Автор Сообщение
MrJARVIS ®
Стаж: 8 лет 4 мес.
Сообщений: 172
Ratio: 53,7
Раздал: 1,533 TB
Поблагодарили: 30651
100%
russia.gif
Ментовские войны 6 (16 серий из 16) (2012) SATRip
Русское название: Ментовские войны 6
Год выпуска: 2012
Производство: Россия, Форвард-фильм, Студия Панорама
Жанр: Детектив
Дата премьеры: 6 февраля 2012 (Украина, телеканал "Украина")



Режиссер: Сергей Раевский
Актеры: Александр Устюгов, Дмитрий Быковский-Ромашов, Янина Соколовская, Марина Игнатова, Александр Лисицын, Всеволод Цурило, Анатолий Узденский, Сергей Лысов, Андрей Кузнецов, Максим Студеновский

Описание фильма:
В новых сериях герои проекта – сотрудники отдела по расследованию умышленных убийств ГУВД Петербурга - продолжат борьбу с наиболее опасными представителями криминальной изнанки города и будут вынуждены вновь столкнуться с так называемыми "оборотнями в погонах", уродливым явлением нашего общества, которые способны причинить не меньший вред, чем закоренелые преступники. Между тем, в жизни Романа Шилова, начальника "убойного отдела", ставшего за время своей службы настоящей легендой правоохранительных органов, произошли серьезные изменения, теперь ему предстоит заботиться не только о своей профессиональной карьере, но и о маленькой дочери Жене, о существовании которой Роман до последнего времени ничего не знал. Однако даже оставаясь наедине с дочерью, Роман не может забыть о служебном долге: однажды прямо на его глазах шайка грабителей совершает налёт на небольшой продуктовый магазин, и, уходя от преследования, бандиты готовы сделать свой мишенью Женю...

Продолжительность: 16 х 00:44:43
Качество видео: SATRip

Видеокодек: XviD
Битрейт видео: ~1399 Кбит/сек
Размер кадра: 720x384
Аудиокодек: MP3 (2ch)
Битрейт аудио: 192 Кбит/сек
Общее
Полное имя : D:\Торренты!\Ментовские войны 6 (2012) SATRip\Ментовские войны 6.(01 серия из 16).2012.SATRip.avi
Формат : AVI
Формат/Информация : Audio Video Interleave
Размер файла : 510 Мбайт
Продолжительность : 44 м.
Общий поток : 1601 Кбит/сек

Видео
Идентификатор : 0
Формат : MPEG-4 Visual
Профиль формата : Simple@L3
Параметр BVOP формата : Нет
Параметр QPel формата : Нет
Параметр GMC формата : Без точки перехода
Параметр матрицы формата : Default (H.263)
Идентификатор кодека : XVID
Идентификатор кодека/Подсказка : XviD
Продолжительность : 44 м.
Битрейт : 1399 Кбит/сек
Ширина : 720 пикселей
Высота : 384 пикселя
Соотношение сторон : 16:9
Частота кадров : 25,000 кадров/сек
Цветовое пространство : YUV
Субдискретизация насыщенности : 4:2:0
Битовая глубина : 8 бит
Тип развёртки : Прогрессивная
Метод сжатия : С потерями
Бит/(Пиксели*Кадры) : 0.202
Размер потока : 445 Мбайт (87%)
Библиотека кодирования : XviD 64

Аудио
Идентификатор : 1
Формат : MPEG Audio
Версия формата : Version 1
Профиль формата : Layer 3
Идентификатор кодека : 55
Идентификатор кодека/Подсказка : MP3
Продолжительность : 44 м.
Вид битрейта : Постоянный
Битрейт : 192 Кбит/сек
Каналы : 2 канала
Частота : 48,0 КГц
Метод сжатия : С потерями
Размер потока : 61,1 Мбайт (12%)
Выравнивание : Соединение по промежуткам
Продолжительность промежутка : 40 мс. (1,00 видеокадр)
Скриншоты:


Время раздачи: C 18:00 до 23:00
Mentovskie.vojny.6.2012.SATRip_nnm-club.ru.torrent
 Торрент: Платиновая раздача  Зарегистрирован
 
Скачать


 Зарегистрирован:   27 Фев 2012 00:42:16
 Размер:   7,96 GB  (
 Рейтинг:   4,8 (Голосов: 527)
 Поблагодарили:   2027
 Проверка:   Оформление проверено модератором 27 Фев 2012 09:49:17
Как cкачать  ·  Как раздать  ·  Правильно оформить  ·  Поднять ратио!  
andr1525
Покровитель талантов
 
Стаж: 9 лет 3 мес.
Сообщений: 2139
Ratio: 5,665
Поблагодарили: 168072
100%
russia.gif
Спасибо! Ждём новых серий. Мой любимый сериал.
Qazimir
Стаж: 9 лет 4 мес.
Сообщений: 153
Ratio: 23,703
Раздал: 15,64 TB
100%
germany.gif
Ну наконец-то на на трекере они появились. известный трекер курит, тут быстрее зарелизил. За что премного благодарен!
H_elenka
Стаж: 9 лет 11 мес.
Сообщений: 276
Ratio: 19,122
Поблагодарили: 16191
100%
ukraine.gif
:супер!: спасибочки !!!
aleksandrr39
Стаж: 9 лет 5 мес.
Сообщений: 11
Ratio: 12,772
0%
russia.gif
Это хорошо,это очень хорошо :супер!:
1977Lex
Стаж: 11 лет
Сообщений: 33
Ratio: 0,816
100%
Откуда: Украина
ukraine.gif
правильный сериал. Раздающему респект.
rik161
Стаж: 8 лет 1 мес.
Сообщений: 87
Ratio: 18,351
15.34%
russia.gif
Спасибо!
gaz_777
Стаж: 11 лет
Сообщений: 6
Ratio: 1,865
100%
ukraine.gif
Хороший фильм. Спасибо!
lyana1776
Стаж: 8 лет 8 мес.
Сообщений: 10
Ratio: 1,602
100%
:ура: Дождалась! просто супер! балдею от этого фильма!!! спасибо раздающему!!!
maklaud67
Стаж: 9 лет 7 мес.
Сообщений: 4
Ratio: 1,32
13.64%
ukraine.gif
Сериал просто супер , лучший сериал из которых я видел
kraswap
Стаж: 8 лет 4 мес.
Сообщений: 69
Ratio: 3,022
Раздал: 497 GB
100%
Откуда: Ачинск
russia.gif
Мой любимый сериал))))
joker5200
Стаж: 8 лет 6 мес.
Сообщений: 75
Ratio: 0,611
8.68%
ukraine.gif
да фильм четкий
vadik114
Стаж: 10 лет
Сообщений: 13
Ratio: 5,116
63.89%
Класный сериал. Большое спасибо. :приветствую: :приветствую: :приветствую:
vitalin04ka
Стаж: 8 лет 4 мес.
Сообщений: 84
Ratio: 14,453
Раздал: 7,589 TB
100%
ukraine.gif
мой любимый сериал :супер!: спасибо огромное :супер!: ура!!!!!!!!! :респект:
omega555
Стаж: 8 лет 1 мес.
Сообщений: 23
Ratio: 11,486
Поблагодарили: 212
100%
ussr.gif
Спасибо!!! Действительно, один из лучших сериалов! :респект:

_________________
Последняя стадия зоофилии - пить с котом валерьянку на брудершафт...
Показать сообщения:   
Начать новую тему   Ответить на тему    Торрент-трекер NNM-Club -> Отечественные сериалы -> Ментовские войны Часовой пояс: GMT + 3
Страницы:  1, 2, 3, 4, 5  След.
Страница 1 из 5