Классический форум-трекер
canvas not supported
Нас вместе: 4 077 757

Хрусталик и пингвин / The Pebble and the Penguin (1995) DVDRip


 
 
RSS
Начать новую тему   Ответить на тему    Торрент-трекер NNM-Club -> Мультфильмы -> Зарубежные Мультфильмы для детей
Автор Сообщение
ornellit ®
Стаж: 9 лет 10 мес.
Сообщений: 1754
Ratio: 197,611
Поблагодарили: 96539
100%
ukraine.gif
Хрусталик и пингвин / The Pebble and the Penguin (1995) DVDRip
Русское название: Хрусталик и пингвин
Оригинальное название: The Pebble and the Penguin
Год выпуска: 1995
Страна: США, Ирландия
Жанр: Рисованная анимация

Перевод: Дублированный

Описание фильма:
Брачная церемония в полнолуние требует, чтобы все птицы-женихи преподнесли своим избранницам какой-нибудь особенный камень. Застенчивый, с добрым сердцем, пингвин Хьюби нашел изумительный хрусталик для своей возлюбленной. Но у Марины есть еще один воздыхатель - злой пингвин Дрейк, который очень хочет избавиться от соперника и завладеть хрусталиком. Но если речь идет о настоящей любви, то не камень покорит сердце любимой.

Режиссер: Дон Блут, Гари Голдман
Персонажи: Мартин Шорт, Энни Голден, Джеймс Белуши, Тим Карри, Алисса Кинг Стиви Вэлланс Уилл Райан Нил Росс Стэн Джонс С. Скотт Баллок Филип Л. Кларк Шэйни Уоллис Б.Дж. Уорд Хэмилтон Кэмп Мэгги Росвэлл

Продолжительность: 01:16:56



Видеокодек: Xvid
Битрейт видео: ~2348 kb/s
Размер кадра: 704 х 528
Качество видео: DVDRip
Аудиокодек: AC3
Битрейт аудио: 192 kb/s, 2 ch.
Общее
Полное имя : Хрусталик и пингвин.1995.DVDRip.[nnm-club.me].avi
Формат : AVI
Формат/Информация : Audio Video Interleave
Размер файла : 1,37 Гбайт
Продолжительность : 1 ч. 16 м.
Общий поток : 2543 Кбит/сек
Программа кодирования : VirtualDubMod 1.5.10.1 Рус от Stvens Inc.™ www.stvens.amillo.net (build 2439/release)
Библиотека кодирования : VirtualDubMod build 2439/release

Видео
Идентификатор : 0
Формат : MPEG-4 Visual
Профиль формата : Simple@L3
Параметр BVOP формата : 1
Параметр QPel формата : Нет
Параметр GMC формата : Без точки перехода
Параметр матрицы формата : Выборочная
Идентификатор кодека : XVID
Идентификатор кодека/Подсказка : XviD
Продолжительность : 1 ч. 16 м.
Битрейт : 2348 Кбит/сек
Ширина : 704 пикселя
Высота : 528 пикселей
Соотношение сторон : 4:3
Частота кадров : 23,976 кадра/сек
Цветовое пространство : YUV
Субдискретизация насыщенности : 4:2:0
Битовая глубина : 8 бит
Тип развёртки : Прогрессивная
Метод сжатия : С потерями
Бит/(Пиксели*Кадры) : 0.264
Размер потока : 1,26 Гбайт (92%)
Библиотека кодирования : XviD 1.0.3 (UTC 2004-12-20)

Аудио
Идентификатор : 1
Формат : AC-3
Формат/Информация : Audio Coding 3
Расширение режима : CM (complete main)
Идентификатор кодека : 2000
Продолжительность : 1 ч. 14 м.
Вид битрейта : Постоянный
Битрейт : 192 Кбит/сек
Каналы : 2 канала
Расположение каналов : Front: L R
Частота : 48,0 КГц
Битовая глубина : 16 бит
Метод сжатия : С потерями
Задержка видео : 12 мс.
Размер потока : 102 Мбайт (7%)
Выравнивание : Разделение по промежуткам
Продолжительность промежутка : 43 мс. (1,04 видеокадр)
Время предзагрузки промежутка : 500 мс.
Язык : Russian
Скриншоты:


Время раздачи: С 13:00 до 21:00 (до 5 скачавших)
Hrustalik i pingvin.1995.DVDRip.[nnm-club.ru].avi.torrent
 Торрент: Серебряная раздча  Зарегистрирован
 
Зарегистрируйтесь и скачайте торрент!
14 KB

Примагнититься
 Зарегистрирован:   10 Фев 2012 01:53:56
 Размер:   1,37 GB  (
 Рейтинг:   4,8 (Голосов: 20)
 Поблагодарили:   82
 Проверка:   Оформление проверено модератором 10 Фев 2012 05:53:15
Как cкачать  ·  Как раздать  ·  Правильно оформить  ·  Поднять ратио!  
Показать сообщения:   
Начать новую тему   Ответить на тему    Торрент-трекер NNM-Club -> Мультфильмы -> Зарубежные Мультфильмы для детей Часовой пояс: GMT + 3
Страница 1 из 1