Классический форум-трекер
canvas not supported
Нас вместе: 4 079 368

Ночной портье / Il portiere di notte (1974) [720p] BDRip


 
 
RSS
Начать новую тему   Ответить на тему    Торрент-трекер NNM-Club -> Классика кино и Старые фильмы до 90-х -> Старые Зарубежные Фильмы (HD, UHD, UHD-LQ, 3D)
Автор Сообщение
Zov72 ®
Стаж: 9 лет 8 мес.
Сообщений: 4743
Ratio: 110,504
Поблагодарили: 597884
100%
Откуда: Вольный кабан
wild_hogs.gif
Ночной портье / Il portiere di notte (1974) [720p] BDRip
«The Most Controversial Picture of Our Time!»
Жанр: Драма

Описание:
1957 год. В венском отеле случайно встречаются бывший нацист и бывшая заключенная концлагеря. Пробудившиеся воспоминания как палача, так и жертвы разжигают между ними странное, противоестественное влечение, которое психоаналитик назвал бы садомазохизмом.

Режиссер: Лилиана Кавани
Актеры: Дирк Богард, Шарлотта Рэмплинг, Филипп Леруа, Габриэле Ферцетти, Джузеппе Аддоббати, Иза Миранда, Нино Биньямини, Марино Мазе, Амедео Амодио, Пьеро Вида

Продолжительность: 01:57:04
Перевод: Многоголосый закадровый, Двухголосый закадровый, Авторский одноголосый
Язык субтитров: Русский, Английский, Французский

Видео: AVC 12.2 Mb/s 1280 x 692 (1.850) 23.976 fps
Аудио#1: Russian: 48 kHz, AC3, 2.0 ch, 192 kbps | MVO Петербург 5 Канал
Аудио#2: Russian: 48 kHz, AC3, 1 ch, 192 kbps | DVO СВ-Дубль
Аудио#3: Russian: 48 kHz, AC3, 2.0 ch, 192 kbps | DVO InterVideo
Аудио#4: Russian: 48 kHz, AC3, 2.0 ch, 192 kbps | AVO Андрей Гаврилов
Аудио#5: Russian: 48 kHz, FLAC, 2.0 ch, 287 kHz | AVO Сергей Визгунов
Аудио#6: Russian: 48 kHz, FLAC, 2.0 ch, 283 kbps kHz | VO Владимир Завгородний
Аудио#7: English: 48 kHz, FLAC, 1.0 ch, 584 kbps Eng
Формат субтитров: softsub (SRT)
• Первой отснятой сценой в картине была сцена, где Шарлотта Рэмплинг танцует с голой грудью..
• Дирк Богард согласился сниматься при условии, что Кавани перепишет сценарий. В итоге, из первоначального варианта выкинули одну сюжетную линию и большую часть разговоров персонажей о политике. Кроме того, по ходу съемок Дирк Богард не раз сокращал реплики своего Макса. Это всегда приводило к жарким спорам с Лилианой Кавани.
• Когда съемки подходили к концу, у продюсера Боба Эдвардса закончились деньги. Съемки пришлось приостановить, группа и актеры разъехались по домам. Судьба фильма висела на волоске. Финальную часть (натурные съемки в Вене) удалось доснять только спустя месяц.
• Съемочная группа очень опасалась гнева жителей Вены, которые могли неодназначно отреагировать на нацистскую форму Дирка Богарда. Но в итоге все страхи оказались напрасны. Когда Богард, как он вспоминал позже, «с тревогой и страхом» вышел на улицу в мундире со свастикой, толпа зевак... громко зааплодировала. А кто-то даже выкрикнул: «Heil!»
• В Италии гонения на фильм прекратились только после вердикта Верховного суда в Милане: «Ночной портье» — это произведение искусства, и никто ни при каких обстоятельствах не имеет права накладывать на него запрет.
• В Нью-Йорке премьеру фильма обставили в стиле садомазохистской оргии. На званом обеде столы накрыли черной виниловой пленкой, на стульях повесили цепи, зажгли черные свечи, разложили спички в обертках из искусственной кожи с изображением сапог и хлыстов.
Код: выделить все

Format version : Version 4
File size : 11.7 GiB
Duration : 1 h 58 min
Overall bit rate mode : Variable
Overall bit rate : 14.1 Mb/s
Movie name : Release for  
Encoded date : UTC 2019-06-08 10:18:46
Writing application : mkvmerge v8.2.0 ('World of Adventure') 64bit
Writing library : libebml v1.3.1 + libmatroska v1.4.2

Video
ID : 1
Format : AVC
Format/Info : Advanced Video Codec
Format profile : High@L4.1
Format settings : CABAC / 9 Ref Frames
Format settings, CABAC : Yes
Format settings, Reference frames : 9 frames
Codec ID : V_MPEG4/ISO/AVC
Duration : 1 h 58 min
Bit rate : 12.2 Mb/s
Width : 1 280 pixels
Height : 692 pixels
Display aspect ratio : 1.85:1
Frame rate mode : Constant
Frame rate : 23.976 (24000/1001) FPS
Color space : YUV
Chroma subsampling : 4:2:0
Bit depth : 8 bits
Scan type : Progressive
Bits/(Pixel*Frame) : 0.575
Stream size : 10.1 GiB (86%)
Title : The Night Porter (1974) Criterion.720p [ .org]
Writing library : x264 core 157 r2969 d4099dd
Encoding settings : cabac=1 / ref=9 / deblock=1:-3:-2 / analyse=0x3:0x133 / me=umh / subme=11 / psy=1 / psy_rd=1.00:0.05 / mixed_ref=1 / me_range=48 / chroma_me=1 / trellis=2 / 8x8dct=1 / cqm=0 / deadzone=21,11 / fast_pskip=0 / chroma_qp_offset=-3 / threads=12 / lookahead_threads=3 / sliced_threads=0 / nr=0 / decimate=1 / interlaced=0 / bluray_compat=0 / constrained_intra=0 / bframes=11 / b_pyramid=2 / b_adapt=2 / b_bias=0 / direct=3 / weightb=1 / open_gop=0 / weightp=2 / keyint=250 / keyint_min=23 / scenecut=40 / intra_refresh=0 / rc_lookahead=60 / rc=crf / mbtree=0 / crf=18.8 / qcomp=0.60 / qpmin=0 / qpmax=69 / qpstep=4 / vbv_maxrate=50000 / vbv_bufsize=62500 / crf_max=0.0 / nal_hrd=none / filler=0 / ip_ratio=1.40 / pb_ratio=1.30 / aq=3:0.90
Language : English
Default : Yes
Forced : No

Audio #1
ID : 2
Format : AC-3
Format/Info : Audio Coding 3
Commercial name : Dolby Digital
Codec ID : A_AC3
Duration : 1 h 58 min
Bit rate mode : Constant
Bit rate : 192 kb/s
Channel(s) : 2 channels
Channel layout : L R
Sampling rate : 48.0 kHz
Frame rate : 31.250 FPS (1536 SPF)
Bit depth : 16 bits
Compression mode : Lossy
Stream size : 163 MiB (1%)
Title : MVO, Петербург 5 канал
Language : Russian
Service kind : Complete Main
Default : Yes
Forced : No

Audio #2
ID : 3
Format : AC-3
Format/Info : Audio Coding 3
Commercial name : Dolby Digital
Codec ID : A_AC3
Duration : 1 h 58 min
Bit rate mode : Constant
Bit rate : 192 kb/s
Channel(s) : 1 channel
Channel layout : C
Sampling rate : 48.0 kHz
Frame rate : 31.250 FPS (1536 SPF)
Bit depth : 16 bits
Compression mode : Lossy
Stream size : 163 MiB (1%)
Title : DVO (SV Dubl)
Language : Russian
Service kind : Complete Main
Default : No
Forced : No

Audio #3
ID : 4
Format : AC-3
Format/Info : Audio Coding 3
Commercial name : Dolby Digital
Codec ID : A_AC3
Duration : 1 h 58 min
Bit rate mode : Constant
Bit rate : 192 kb/s
Channel(s) : 2 channels
Channel layout : L R
Sampling rate : 48.0 kHz
Frame rate : 31.250 FPS (1536 SPF)
Bit depth : 16 bits
Compression mode : Lossy
Stream size : 163 MiB (1%)
Title : DVO InterVideo
Language : Russian
Service kind : Complete Main
Default : No
Forced : No

Audio #4
ID : 5
Format : AC-3
Format/Info : Audio Coding 3
Commercial name : Dolby Digital
Codec ID : A_AC3
Duration : 1 h 58 min
Bit rate mode : Constant
Bit rate : 192 kb/s
Channel(s) : 2 channels
Channel layout : L R
Sampling rate : 48.0 kHz
Frame rate : 31.250 FPS (1536 SPF)
Bit depth : 16 bits
Compression mode : Lossy
Stream size : 163 MiB (1%)
Title : AVO Андрей Гаврилов
Language : Russian
Service kind : Complete Main
Default : No
Forced : No

Audio #5
ID : 6
Format : FLAC
Format/Info : Free Lossless Audio Codec
Codec ID : A_FLAC
Duration : 1 h 58 min
Bit rate mode : Variable
Bit rate : 287 kb/s
Channel(s) : 2 channels
Channel layout : L R
Sampling rate : 48.0 kHz
Frame rate : 11.719 FPS (4096 SPF)
Bit depth : 16 bits
Compression mode : Lossless
Stream size : 243 MiB (2%)
Title : AVO (Сергей Визгунов)
Writing library : libFLAC 20080709 (UTC 2008-07-09)
Language : Russian
Default : No
Forced : No

Audio #6
ID : 7
Format : FLAC
Format/Info : Free Lossless Audio Codec
Codec ID : A_FLAC
Duration : 1 h 58 min
Bit rate mode : Variable
Bit rate : 283 kb/s
Channel(s) : 2 channels
Channel layout : L R
Sampling rate : 48.0 kHz
Frame rate : 11.719 FPS (4096 SPF)
Bit depth : 16 bits
Compression mode : Lossless
Stream size : 240 MiB (2%)
Title : VO Владимир Завгородний
Writing library : libFLAC 20080709 (UTC 2008-07-09)
Language : Russian
Default : No
Forced : No

Audio #7
ID : 8
Format : FLAC
Format/Info : Free Lossless Audio Codec
Codec ID : A_FLAC
Duration : 1 h 58 min
Bit rate mode : Variable
Bit rate : 584 kb/s
Channel(s) : 1 channel
Channel layout : C
Sampling rate : 48.0 kHz
Frame rate : 11.719 FPS (4096 SPF)
Bit depth : 24 bits
Compression mode : Lossless
Stream size : 494 MiB (4%)
Title : Original
Writing library : libFLAC 1.2.1 (UTC 2007-09-17)
Language : English
Default : No
Forced : No

Text #1
ID : 9
Format : UTF-8
Codec ID : S_TEXT/UTF8
Codec ID/Info : UTF-8 Plain Text
Duration : 58 min 46 s
Bit rate : 3 b/s
Count of elements : 23
Stream size : 1.43 KiB (0%)
Title : Forced
Language : Russian
Default : Yes
Forced : No

Text #2
ID : 10
Format : UTF-8
Codec ID : S_TEXT/UTF8
Codec ID/Info : UTF-8 Plain Text
Duration : 1 h 55 min
Bit rate : 49 b/s
Count of elements : 620
Stream size : 42.4 KiB (0%)
Title : ThePooh & Co
Language : Russian
Default : No
Forced : No

Text #3
ID : 11
Format : UTF-8
Codec ID : S_TEXT/UTF8
Codec ID/Info : UTF-8 Plain Text
Duration : 1 h 49 min
Bit rate : 50 b/s
Count of elements : 725
Stream size : 40.4 KiB (0%)
Title : Константин Дьяконов
Language : Russian
Default : No
Forced : No

Text #4
ID : 12
Format : UTF-8
Codec ID : S_TEXT/UTF8
Codec ID/Info : UTF-8 Plain Text
Duration : 1 h 49 min
Bit rate : 53 b/s
Count of elements : 708
Stream size : 43.2 KiB (0%)
Title : ИнтерВидео
Language : Russian
Default : No
Forced : No

Text #5
ID : 13
Format : UTF-8
Codec ID : S_TEXT/UTF8
Codec ID/Info : UTF-8 Plain Text
Duration : 1 h 48 min
Bit rate : 30 b/s
Count of elements : 718
Stream size : 24.2 KiB (0%)
Title : Full
Language : English
Default : No
Forced : No

Menu
00:00:00.000 : en:Men of distinction
00:04:51.666 : en:A familiar face
00:09:48.254 : en:No witnesses
00:16:14.265 : en:A dance for Max
00:22:48.075 : en:Peace and quiet
00:27:56.967 : en:At the opera
00:33:59.829 : en:Left alone
00:40:59.791 : en:The church mouse
00:48:19.647 : en:"Why did you come here?"
00:59:14.009 : en:All is well
01:08:02.161 : en:A biblical story
01:18:00.759 : en:Broken glass and chains
01:24:03.914 : en:Inquiries
01:30:25.462 : en:A game for freaks
01:35:59.504 : en:Desperate measures
01:41:20.283 : en:Strawberry marmalade
01:45:12.806 : en:Off the hook
01:49:04.997 : en:Blackout
01:53:30.220 : en:At dawn


Cкриншоты из фильма:



Релиз от:

Приятного просмотра !!!
и не забываем говорить СПАСИБО...

Время раздачи: 24/7 до 15 скачавших..
[NNMClub.to]_Il portiere di notte (1974).Criterion.720p.mkv.torrent
 Торрент: Платиновая раздача  Зарегистрирован
 
Скачать


Примагнититься
 Зарегистрирован:   01 Июл 2019 17:31:20
 Размер:   11,7 GB  (
 Рейтинг:   4,6 (Голосов: 33)
 Поблагодарили:   137
 Проверка:   Оформление проверено модератором 01 Июл 2019 17:34:05
Как cкачать  ·  Как раздать  ·  Правильно оформить  ·  Поднять ратио!  

_________________
Мне чужого не надо….Но свое я заберу, чье бы оно ни было!!!
NorthOn
 
Админ
Стаж: 13 лет 2 мес.
Сообщений: 12853
Ratio: 1048,04
Поблагодарили: 14366
100%
nnm-club.gif
Торрент перерегистрирован в рамках акции Включаем DHT в древних раздачах
Теперь вам нужно его скачать и открыть в торрент-клиенте, указав в качестве места сохранения раздаваемый файл или папку.

_________________
Либо я найду путь, либо проложу его...
pluto999
Стаж: 6 лет 3 мес.
Сообщений: 57
Ratio: 7,606
Поблагодарили: 201
0%
Реализма нема - одна психология и эротические фантазии.

А "Капо" (1960) Понтекорво здесь почему-то нет.
Описание: История нравственного падения еврейской девушки, попавшей в невообразимые условия гитлеровской фабрики смерти Освенцим и превратившейся в капо (надсмотрщицу). Чтобы не голодать, жить без постоянного страха смерти, не опасаясь изнурительных каторжных работ, нужно только одно — быть жестокой.

NOTE:
Освенцимским капо у нас давали - 10 лет минимум, в Израиле - в 50-е 2 года, а в 60-е вообще перестали преследовать своих коллаборационистов.
Показать сообщения:   
Начать новую тему   Ответить на тему    Торрент-трекер NNM-Club -> Классика кино и Старые фильмы до 90-х -> Старые Зарубежные Фильмы (HD, UHD, UHD-LQ, 3D) Часовой пояс: GMT + 3
Страница 1 из 1