Классический форум-трекер
canvas not supported
Нас вместе: 4 093 306

Верность / La fidélité (2000) DVD9


 
 
RSS
Начать новую тему   Ответить на тему    Торрент-трекер NNM-Club -> Зарубежное кино -> Зарубежные Фильмы (DVD)
Автор Сообщение
Alex_Fors ®
Стаж: 9 лет 4 мес.
Сообщений: 387
Ratio: 102,587
Поблагодарили: 18456
100%
portugal.gif
Верность / La fidélité (2000) DVD9
Русское название: Верность
Оригинальное название: La fidélité
Производство: Франция, Португалия
Год выпуска: 2000
Жанр: Драма

Описание фильма:
Молодая талантливая фотожурналистка Клелия работает на скандально известного медиамагната Люсьена Мак Руа, который когда-то был любовником ее матери. Фоторепортажи Клелии отличаются большой выдумкой и требуют немалой смелости.

Редактор Клев, влюбившийся в Клелию с первого взгляда, просит ее руки. Она не может устоять перед его прямодушием и трогательной неуклюжестью и отвечает согласием. Ведь ради нее Клев отказался жениться на дочери самого Мак Руа.

В канун свадьбы Клелия знакомится с молодым папарацци Немо, работающим на все того же Мак Руа! И, хотя Клелия влюбляется в Немо, она пытается остаться верной мужу, которого скорее уважает, чем любит…

Режиссер: Анджей Жулавски
Актеры: Софи Марсо, Паскаль Греггори, Гийом Кане, Мишель Сюбор, Магали Ноэль, Марк Франсуа, Эдит Скоб, Марина Хэндс, Manuel Le Lièvre, Орельен Рекуан ...

Продолжительность: 02:39:23
Перевод: Многоголосый закадровый
Язык субтитров: русский
Вид субтитров: Вшитые отключаемые



Дата мировой премьеры: 5 апреля 2000
Дата выхода DVD релиза: 11 декабря 2008, «Cinema Prestige»

Видеокодек: MPEG-2
Битрейт видео: ~5167 kb/s
Размер кадра: PAL 16:9 (720x576) VBR Auto Pan&Scan, Auto Letterboxed
Качество видео: DVD9
Аудио: (Dolby AC3, 6 ch) ~384 kb/s |Русский,многоголосый закадровый|
Аудио: (Dolby AC3, 6 ch) ~384 kb/s |Французский,оригинал|
СЭМПЛ
-Трейлер
-Интервью актеров
-На съемочной площадке
Title: Верность.2000.DVD9
Size: 7.78 Gb ( 8 158 914,00 KBytes ) - DVD-9
Enabled regions: 1, 2, 3, 4, 5, 6, 7, 8

VTS_01 :
Play Length: 00:00:10
Video: PAL 4:3 (720x576) VBR

VTS_02 :
Play Length: 00:00:07
Video: PAL 16:9 (720x576) VBR, Auto Pan&Scan, Auto Letterboxed
Audio:
Not specified (Dolby AC3, 6 ch)

VTS_03 :
Play Length: 00:01:38
Video: PAL 4:3 (720x576) VBR
Audio:
Russian (Dolby AC3, 2 ch)

VTS_04 :
Play Length: 00:06:11
Video: PAL 4:3 (720x576) VBR
Audio:
Russian (Dolby AC3, 2 ch)

VTS_05 :
Play Length: 00:04:53
Video: PAL 4:3 (720x576) VBR
Audio:
Russian (Dolby AC3, 2 ch)

VTS_06 :
Play Length: 00:09:34
Video: PAL 4:3 (720x576) VBR
Audio:
Russian (Dolby AC3, 2 ch)

VTS_07 :
Play Length: 00:07:08
Video: PAL 4:3 (720x576) VBR
Audio:
Russian (Dolby AC3, 2 ch)

VTS_08 :
Play Length: 02:39:23
Video: PAL 16:9 (720x576) VBR, Auto Pan&Scan, Auto Letterboxed
Audio:
Russian (Dolby AC3, 6 ch)
Francais (Dolby AC3, 6 ch)
Subtitles:
Russian

* Menus Information *

VIDEO_TS Menu
Video:
PAL 16:9 (720x576) VBR
Auto Pan&Scan, Auto Letterboxed
English Language Unit :
Title Menu

VTS_01 Menu
Video:
PAL 16:9 (720x576) VBR
Auto Letterboxed
Audio:
Not specified (Dolby AC3, 2 ch)
English Language Unit :
Root Menu

VTS_02 Menu
Video:
PAL 4:3 (720x576) VBR
English Language Unit :
Root Menu

VTS_03 Menu
Video:
PAL 4:3 (720x576) VBR
English Language Unit :
Root Menu

VTS_04 Menu
Video:
PAL 4:3 (720x576) VBR
English Language Unit :
Root Menu

VTS_05 Menu
Video:
PAL 4:3 (720x576) VBR
English Language Unit :
Root Menu

VTS_06 Menu
Video:
PAL 4:3 (720x576) VBR
English Language Unit :
Root Menu

VTS_07 Menu
Video:
PAL 4:3 (720x576) VBR
English Language Unit :
Root Menu

VTS_08 Menu
Video:
PAL 4:3 (720x576) VBR
English Language Unit :
Root Menu
Формат : MPEG-PS
Размер файла : 1024 Мбайт
Продолжительность : 23 м.
Общий поток : 6055 Кбит/сек

Видео
Идентификатор : 224 (0xE0)
Формат : MPEG Video
Версия формата : Version 2
Профиль формата : Main@Main
Параметр BVOP формата : Да
Параметр матрицы формата : По умолчанию
Параметр GOP формата : M=3, N=13
Продолжительность : 23 м.
Вид битрейта : Переменный
Битрейт : 5167 Кбит/сек
Максимальный битрейт : 7600 Кбит/сек
Ширина : 720 пикселей
Высота : 576 пикселей
Соотношение сторон : 2,35:1
Частота кадров : 25,000 кадров/сек
Стандарт вещания : PAL
Цветовое пространство : YUV
Субдискретизация насыщенности : 4:2:0
Битовая глубина : 8 бит
Тип развёртки : Чересстрочная
Порядок развёртки : Верхнее поле первое
Метод сжатия : С потерями
Бит/(Пиксели*Кадры) : 0.498
Размер потока : 874 Мбайт (85%)

Аудио #1
Идентификатор : 189 (0xBD)-128 (0x80)
Формат : AC-3
Формат/Информация : Audio Coding 3
Расширение режима : CM (complete main)
Режим смешивания : DVD-Video
Продолжительность : 23 м.
Вид битрейта : Постоянный
Битрейт : 384 Кбит/сек
Каналы : 6 каналов
Расположение каналов : Front: L C R, Side: L R, LFE
Частота : 48,0 КГц
Битовая глубина : 16 бит
Метод сжатия : С потерями
Задержка видео : -368 мс.
Размер потока : 64,9 Мбайт (6%)

Аудио #2
Идентификатор : 189 (0xBD)-129 (0x81)
Формат : AC-3
Формат/Информация : Audio Coding 3
Расширение режима : CM (complete main)
Режим смешивания : DVD-Video
Продолжительность : 23 м.
Вид битрейта : Постоянный
Битрейт : 384 Кбит/сек
Каналы : 6 каналов
Расположение каналов : Front: L C R, Side: L R, LFE
Частота : 48,0 КГц
Битовая глубина : 16 бит
Метод сжатия : С потерями
Задержка видео : -368 мс.
Размер потока : 64,9 Мбайт (6%)

Текст
Идентификатор : 189 (0xBD)-32 (0x20)
Формат : RLE
Формат/Информация : Run-length encoding
Режим смешивания : DVD-Video
Задержка видео : 640 мс.

Меню
Скриншоты:


Время раздачи: 18:00-21:00 до 5 скачавших
[NNM-Club.ru]_Vernost'.2000.DVD9.torrent
 Торрент: Платиновая раздача  Зарегистрирован
 
Скачать


 Зарегистрирован:   12 Фев 2012 16:29:16
 Размер:   7,78 GB  (
 Рейтинг:   4,4 (Голосов: 10)
 Поблагодарили:   40
 Проверка:   Оформление проверено модератором 12 Фев 2012 19:27:55
Как cкачать  ·  Как раздать  ·  Правильно оформить  ·  Поднять ратио!  
Показать сообщения:   
Начать новую тему   Ответить на тему    Торрент-трекер NNM-Club -> Зарубежное кино -> Зарубежные Фильмы (DVD) Часовой пояс: GMT + 3
Страница 1 из 1