Классический форум-трекер
canvas not supported
Нас вместе: 4 065 203

Рай океана / Океан-рай / Ocean Heaven (2010) [720p] BDRip


 
 
RSS
Начать новую тему   Ответить на тему    Торрент-трекер NNM-Club -> Зарубежное кино -> Азиатское кино (HD, UHD, UHD-LQ)
Автор Сообщение
yarik2001 ®
Стаж: 6 лет 10 мес.
Сообщений: 20
Ratio: 21,922
Поблагодарили: 1131
Рай океана / Океан-рай / Ocean Heaven (2010)[720p] BDRip
Русское название: Океан-рай
Оригинальное название: Ocean Heaven
Год выпуска: 2010
Жанр: Драма

Описание фильма:
Главный герой узнает, что неизлечимо болен раком. Его сын — беспомощный аутист. И умирающий отец должен успеть как-то устроить его жизнь до своего ухода туда, откуда не возвращаются…

Режиссер: Сюэ Сяолу
Актеры: Джет Ли, Ран Чен, Чжан Вэнь, Луньмэй Квай, Юаньюань Жу

Продолжительность: 01:37:07
Перевод: Одноголосый закадровый



Видеокодек: MPEG-4 AVC/H.264
Битрейт видео: ~4940 Кбит/сек
Размер кадра: 1280x692 AR 1.850 23.976 fps
Качество видео: BDRip
Аудиокодек: DTS : 6 каналов : Front: L C R, Side: L R, LFE : Частота : 48,0 КГц
Битрейт аудио: 1510 Кбит/сек

Скриншоты:
Слишком хороший, слишком душевный, слишком трогательный и слишком добрый фильм! Он не может не запомниться, он остается в голове и он заставляет на подсознательном уровне его пересматривать.

Джет Ли безупречен! Я не смог придраться к этой его роли, хотя, пожалуй, изначально относился к ней предвзято.

Трудно перечислять хорошие и плохие стороны этого фильма, его лучше посмотреть. И честное слово, он не оставит вас равнодушным. Саундтрек — идеален, игра актеров-безупречна… и самое главное, весь этот фильм от начала и до самого конца пропитан добротой… самой доброй добротой!

Люблю этот фильм!

Не могу не смотреть, он правдивый и он трогательный…

Если хотите настоящих эмоций, то обязательно посмотрите… это того стоит
Время раздачи: 17.00-09.00
Общее
Уникальный идентификатор : 236305447829335557418516615923725542575 (0xB1C6C617BB9F4F708FF1C22F7560A4AF)
Полное имя : G:\Фильмы\Ocean Heaven.mkv
Формат : Matroska
Версия формата : Version 2
Размер файла : 4,37 Гбайт
Продолжительность : 1 ч. 37 м.
Общий поток : 6442 Кбит/сек
Название фильма : Haiyang tiantang 2010 [AllFilms  .org]
Дата кодирования : UTC 2012-02-15 05:42:02
Программа кодирования : mkvmerge v4.8.0 ('I Got The...') сборка от May 24 2011 03:12:58
Библиотека кодирования : libebml v1.2.0 + libmatroska v1.1.0

Видео
Идентификатор : 1
Формат : AVC
Формат/Информация : Advanced Video Codec
Профиль формата : High@L4.1
Параметр CABAC формата : Да
Параметр ReFrames формата : 8 кадров
Режим смешивания : Header stripping
Идентификатор кодека : V_MPEG4/ISO/AVC
Продолжительность : 1 ч. 37 м.
Битрейт : 4940 Кбит/сек
Ширина : 1280 пикселей
Высота : 692 пикселя
Соотношение сторон : 1,850
Частота кадров : 23,976 кадра/сек
Цветовое пространство : YUV
Субдискретизация насыщенности : 4:2:0
Битовая глубина : 8 бит
Тип развёртки : Прогрессивная
Бит/(Пиксели*Кадры) : 0.233
Размер потока : 3,26 Гбайт (75%)
Библиотека кодирования : x264 core 116 r2074 2641b9e
Настройки программы : cabac=1 / ref=8 / deblock=1:-3:-3 / analyse=0x3:0x133 / me=umh / subme=10 / psy=1 / psy_rd=1.10:0.15 / mixed_ref=1 / me_range=32 / chroma_me=1 / trellis=2 / 8x8dct=1 / cqm=0 / deadzone=21,11 / fast_pskip=1 / chroma_qp_offset=-3 / threads=12 / sliced_threads=0 / nr=0 / decimate=1 / interlaced=0 / bluray_compat=0 / constrained_intra=0 / bframes=5 / b_pyramid=2 / b_adapt=2 / b_bias=0 / direct=3 / weightb=1 / open_gop=0 / weightp=2 / keyint=240 / keyint_min=23 / scenecut=60 / intra_refresh=0 / rc_lookahead=60 / rc=2pass / mbtree=1 / bitrate=4940 / ratetol=1.0 / qcomp=0.70 / qpmin=0 / qpmax=69 / qpstep=4 / cplxblur=20.0 / qblur=0.5 / vbv_maxrate=40000 / vbv_bufsize=40000 / nal_hrd=none / ip_ratio=1.20 / aq=1:1.00
Язык : English
Default : Да
Forced : Нет

Аудио
Идентификатор : 2
Формат : DTS
Формат/Информация : Digital Theater Systems
Режим смешивания : Header stripping
Идентификатор кодека : A_DTS
Продолжительность : 1 ч. 37 м.
Вид битрейта : Постоянный
Битрейт : 1510 Кбит/сек
Каналы : 6 каналов
Расположение каналов : Front: L C R, Side: L R, LFE
Частота : 48,0 КГц
Битовая глубина : 24 бит
Метод сжатия : С потерями
Задержка видео : 11 мс.
Размер потока : 1,02 Гбайт (23%)
Заголовок : DeMon
Язык : Russian
Default : Да
Forced : Нет
[NNM-Club.ru]_Ocean Heaven.mkv.torrent
 Торрент: Платиновая раздача  Зарегистрирован
 
Скачать


Примагнититься
 Зарегистрирован:   05 Дек 2018 13:58:59
 Размер:   4,37 GB  (
 Рейтинг:   4,8 (Голосов: 25)
 Поблагодарили:   118
 Проверка:   Оформление проверено модератором 05 Дек 2018 13:59:08
Как cкачать  ·  Как раздать  ·  Правильно оформить  ·  Поднять ратио!  
aleXXXpank2010
Стаж: 8 лет 6 мес.
Сообщений: 625
Ratio: 0,981
7.26%
ussr.gif
Джет Ли не в боевике? Надо глянуть.
yarik2001 ®
Стаж: 6 лет 10 мес.
Сообщений: 20
Ratio: 21,922
Поблагодарили: 1131
aleXXXpank2010 писал(а): Перейти к сообщению
Джет Ли не в боевике? Надо глянуть.


только не рыдай потом...

_________________
AVI MOST DIE
Luckyman13
Стаж: 8 лет 2 мес.
Сообщений: 12
Ratio: 117,769
Поблагодарили: 154
100%
russia.gif
Стоит посмотреть...
cummins
Стаж: 5 лет 9 мес.
Сообщений: 164
Ratio: 5,912
100%
ussr.gif
Цитата:
Перевод: Одноголосый закадровый
а что автор аноним или совсем неизвестный такой ?
Показать сообщения:   
Начать новую тему   Ответить на тему    Торрент-трекер NNM-Club -> Зарубежное кино -> Азиатское кино (HD, UHD, UHD-LQ) Часовой пояс: GMT + 3
Страница 1 из 1