Классический форум-трекер
canvas not supported
Нас вместе: 4 079 195

Обратная сторона луны (1984) DVDRip


 
 
RSS
Начать новую тему   Ответить на тему    Торрент-трекер NNM-Club -> Мультфильмы -> Отечественные Мультфильмы (HD*Rip/LQ, DVDRip, SATRip, VHSRip)
Автор Сообщение
April_swine ®
Стаж: 11 лет 11 мес.
Сообщений: 4
Ratio: 2,118
Поблагодарили: 386
20%
russia.gif
Обратная сторона луны (1984)
Жанр: мультипликационный фильм
Производство: Объединение "Экран" | СССР

Описание:

Шуточный мультфильм о традиционном кавказском гостеприимстве.
Рисованный. Для взрослых.



Режиссер: Александр Татарский
Актеры:
сценаристы Е. Назаренко,
Игорь Ковалев
художник-постановщик Елена Косарева
художники-мультипликаторы Владлен Барбэ,
Александр Татарский,
Александр Федулов
оператор Эрнст Гаман
композитор Владимир Назаров
звукооператор Нелли Кудрина
редакторы Владимир Назаров,
Алиса Феодориди

Продолжительность: 9 мин. 38 сек.

Video: 720x544 (1.32:1), 25 fps, XviD MPEG-4 ~2396 kbps avg, 0.24 bit/pixel
Audio: 48 kHz, AC3 Dolby Digital, 2/0 (L,R) ch, ~192 kbps
Код: выделить все
Общее
Полное имя                               : Obratnaya_storona_Luni.avi
Формат                                   : AVI
Формат/Информация                        : Audio Video Interleave
Размер файла                             : 179 Мбайт
Продолжительность                        : 9 м. 38 с.
Общий поток                              : 2598 Кбит/сек
Программа кодирования                    : VirtualDubMod 1.5.10.2 (build 2540/release)
Библиотека кодирования                   : VirtualDubMod build 2540/release

Видео
Идентификатор                            : 0
Формат                                   : MPEG-4 Visual
Профиль формата                          : Advanced Simple@L5
Параметр BVOP формата                    : 2
Параметр QPel формата                    : Нет
Параметр GMC формата                     : Без точки перехода
Параметр матрицы формата                 : Default (H.263)
Режим смешивания                         : Сжатый битовый поток
Идентификатор кодека                     : XVID
Идентификатор кодека/Подсказка           : XviD
Продолжительность                        : 9 м. 38 с.
Битрейт                                  : 2397 Кбит/сек
Ширина                                   : 720 пикселей
Высота                                   : 544 пикселя
Соотношение сторон                       : 4:3
Частота кадров                           : 25,000 кадров/сек
Цветовое пространство                    : YUV
Субдискретизация насыщенности            : 4:2:0
Битовая глубина                          : 8 бит
Тип развёртки                            : Прогрессивная
Метод сжатия                             : С потерями
Бит/(Пиксели*Кадры)                      : 0.245
Размер потока                            : 165 Мбайт (92%)
Библиотека кодирования                   : XviD 1.2.1 (UTC 2008-12-04)

Аудио
Идентификатор                            : 1
Формат                                   : AC-3
Формат/Информация                        : Audio Coding 3
Параметр Endianness формата              : Big
Идентификатор кодека                     : 2000
Продолжительность                        : 9 м. 38 с.
Вид битрейта                             : Постоянный
Битрейт                                  : 192 Кбит/сек
Каналы                                   : 2 канала
Расположение каналов                     : Front: L R
Частота                                  : 48,0 КГц
Частота кадров                           : 31,250 кадров/сек (1536 spf)
Битовая глубина                          : 16 бит
Метод сжатия                             : С потерями
Размер потока                            : 13,3 Мбайт (7%)
Выравнивание                             : Разделение по промежуткам
Продолжительность промежутка             : 40  мс. (1,00 видеокадр)
Время предзагрузки промежутка            : 500  мс.
ServiceKind/String                       : Complete Main
Скриншоты:
[NNM-Club.me]_Obratnaya_storona_Luni.avi.torrent
 Торрент: Платиновая раздача  Зарегистрирован
 
Скачать


Примагнититься
 Зарегистрирован:   21 Окт 2018 10:13:47
 Размер:   179 MB  (
 Рейтинг:   4,9 (Голосов: 78)
 Поблагодарили:   341
 Проверка:   Оформление проверено модератором 21 Окт 2018 10:38:33
Как cкачать  ·  Как раздать  ·  Правильно оформить  ·  Поднять ратио!  
LET
Инквизитор
Стаж: 12 лет 7 мес.
Сообщений: 4888
Ratio: 85,027
Поблагодарили: 19570
100%
ussr.gif
Один из пластилиновых шедевров Татарского, не обретший столь же широкой популярности, как его «Пластилиновая ворона» или «Падал прошлогодний снег», — но от этого не менее замечательный и смешной. В нём схематичным образом показаны нравы и обычаи кавказского народа, приправленные свойственной Татарскому толикой сюрреализма и конечно, изрядной долей иронии. И, главное, несмотря на всю весёлость происходящего, чувствуется та самая «настоящесть», которой веет от того же «Прошлогоднего снега», и едва заметная тёплая грусть.

_________________
Aragon 57
Стаж: 9 лет 4 мес.
Сообщений: 3
Ratio: 14,409
100%
Откуда: Калининград
russia.gif
Огромное спасиб!!! Очень, очень долго искал.
himbeere
Стаж: 9 лет 9 мес.
Сообщений: 451
Ratio: 10,342
38.89%
russia.gif
61,5 % надежда умирает последней

_________________
дураков не сеют не пашут, они сами родятся...
himbeere
Стаж: 9 лет 9 мес.
Сообщений: 451
Ratio: 10,342
38.89%
russia.gif
есть ещё кто-нибудь здесь,хоть кто-то кроме меня :задумался:

_________________
дураков не сеют не пашут, они сами родятся...
himbeere
Стаж: 9 лет 9 мес.
Сообщений: 451
Ratio: 10,342
38.89%
russia.gif
суслики не сдаются

_________________
дураков не сеют не пашут, они сами родятся...
KABEEB_POMA
Стаж: 9 лет 6 мес.
Сообщений: 448
Ratio: 9,391
100%
russia.gif
спасибо сусликам!
sanwaexport
Стаж: 3 года 10 мес.
Сообщений: 9
Ratio: 8,573
100%
Все здесь
Leexxs
Стаж: 8 мес. 30 дней
Сообщений: 28
Ratio: 2,997
37.89%
russia.gif
Спасибо раздающим, мультик очень понравился ,,
Показать сообщения:   
Начать новую тему   Ответить на тему    Торрент-трекер NNM-Club -> Мультфильмы -> Отечественные Мультфильмы (HD*Rip/LQ, DVDRip, SATRip, VHSRip) Часовой пояс: GMT + 3
Страница 1 из 1