Классический форум-трекер
canvas not supported
Нас вместе: 4 078 015

Сказки русских писателей. Выпуск 3. Реставрированные (1948-1996) DVDrip


 
 
RSS
Начать новую тему   Ответить на тему    Торрент-трекер NNM-Club -> Мультфильмы -> Отечественные Мультфильмы для детей
Автор Сообщение
mixa-81 ®
Стаж: 12 лет 5 мес.
Сообщений: 445
Ratio: 2,106
Поблагодарили: 13071
100%
finland.gif
Сказки русских писателей. Выпуск 3. Реставрированные (1948-1996) DVDrip
ПОЛНАЯ РЕСТАВРАЦИЯ ИЗОБРАЖЕНИЯ И ЗВУКА.

Жанр: Анимация / Детский / Семейный
Режиссер: М.Цехановский / В. и З.Брумберг / А.Трусов, В.Котеночкин / В.Караваев

Описание:
Цветик - семицветик.
Это чудесная сказка по произведению В. Катаева о волшебном цветике-семицветике, который исполняет любые желания.
Три толстяка.
Мультфильм создан по знаменитой сказке Юрия Карловича Олеши. История о ловком канатоходце Тибуле, о смелой и дерзкой девочке-кукле Суок, о добром докторе Гаспаре и о тиранах-правителях Трех Толстяках. И, главное, о том, как искренность и любовь побеждают в маленьком человеке - наследнике тиранов Тутти - всё ненастоящее и наносное, пробуждая в нем самого обычного мальчишку.
Лягушка - путешественница.
Об удивительном путешествии, которое совершила вместе с перелетными утками храбрая лягушка.
Му - му.
Трогательный мультфильм по рассказе И. С. Тургенева о немом крепостном и верном друге человека - собаке по кличке Му - му.

Продолжительность: 01:30:19
Видеокодек: XviD
Битрейт видео: 953kb/c
Размер кадра: 512*384
Качество видео: DVDRip
Аудиокодек: MP3
Битрейт аудио: 128kb/c
Перевод: Оригинальный
Код: выделить все
General
Format                                   : AVI
Format/Info                              : Audio Video Interleave
File size                                : 699 MiB
Duration                                 : 1h 30mn
Overall bit rate                         : 1 082 Kbps
Movie name                               : Skazki.russkikh.pisateley.Vupusk_3.xvid.rus.mp3.dvd-rip.from.DVD5.by.Klaipeda.via.torrent.e2k.ru.by.soperedi.avi
Writing application                      : VirtualDubMod 1.5.4.1 (build 2178/release)
Comment                                  : soperedi

Video
ID                                       : 0
Format                                   : MPEG-4 Visual
Format profile                           : Advanced Simple@L5
Format settings, BVOP                    : 1
Format settings, QPel                    : No
Format settings, GMC                     : No warppoints
Format settings, Matrix                  : Default (H.263)
Muxing mode                              : Packed bitstream
Codec ID                                 : XVID
Codec ID/Hint                            : XviD
Duration                                 : 1h 30mn
Bit rate                                 : 947 Kbps
Width                                    : 512 pixels
Height                                   : 384 pixels
Display aspect ratio                     : 4:3
Frame rate                               : 25.000 fps
Color space                              : YUV
Chroma subsampling                       : 4:2:0
Bit depth                                : 8 bits
Scan type                                : Progressive
Compression mode                         : Lossy
Bits/(Pixel*Frame)                       : 0.193
Stream size                              : 612 MiB (87%)
Writing library                          : XviD 1.2.0.dev45 (UTC 2006-07-10)

Audio
ID                                       : 1
Format                                   : MPEG Audio
Format version                           : Version 1
Format profile                           : Layer 3
Mode                                     : Joint stereo
Mode extension                           : MS Stereo
Codec ID                                 : 55
Codec ID/Hint                            : MP3
Duration                                 : 1h 30mn
Bit rate mode                            : Constant
Bit rate                                 : 128 Kbps
Channel(s)                               : 2 channels
Sampling rate                            : 48.0 KHz
Compression mode                         : Lossy
Stream size                              : 82.7 MiB (12%)
Alignment                                : Aligned on interleaves
Interleave, duration                     : 80 ms (2.00 video frames)
Interleave, preload duration             : 504 ms
Writing library                          : LAME3.97b
Encoding settings                        : -m j -V 4 -q 2 -lowpass 17 -b 128
Скриншоты:

Время раздачи: с 10:00 до 03:00
Реставрация 28.10.2014 от: Ден Казаров
Skazki russkih pisatelej. Vipusk 3.torrent
 Торрент: Платиновая раздача  Зарегистрирован
 
Скачать


 Зарегистрирован:   06 Ноя 2007 13:12:17
 Размер:   699 MB  (
 Рейтинг:   4,9 (Голосов: 46)
 Поблагодарили:   171
 Проверка:   Оформление проверено модератором 06 Ноя 2007 13:15:23
Как cкачать  ·  Как раздать  ·  Правильно оформить  ·  Поднять ратио!  
Reda
Гость
Это просто ПРАЗДНЕГ какой-то!!! Молодцца! Спасибо огромное!
1ADITA
Стаж: 11 лет 6 мес.
Сообщений: 90
Ratio: 0,973
22.46%
Откуда: Херсон
ukraine.gif
Большое спасибо за наши красиввые сказки!
alex748
Стаж: 11 лет 2 мес.
Сообщений: 28
Ratio: 3,445
Поблагодарили: 299
3.59%
Откуда: Россия
russia.gif
Кто есть живой на раздаче?Все встало.Скачал 30 проц. жду с декабря 2008! АУ!
Показать сообщения:   
Начать новую тему   Ответить на тему    Торрент-трекер NNM-Club -> Мультфильмы -> Отечественные Мультфильмы для детей Часовой пояс: GMT + 3
Страница 1 из 1