Классический форум-трекер
canvas not supported
Нас вместе: 4 079 337

Интерны (1-4 сезоны: 1-80 серии из 80) (2010-2011) 8xDVD9


 
 
RSS
Начать новую тему   Ответить на тему    Торрент-трекер NNM-Club -> Отечественные сериалы -> Интерны
Автор Сообщение
Garryson ®
Сталкер
Uploader 200+
Стаж: 11 лет 3 мес.
Сообщений: 5021
Ratio: 1113,075
Поблагодарили: 161124
100%
Откуда: DFO
Интерны (1-4 сезоны: 1-80 серии из 80) (2010-2011) 8xDVD9
Русское название: Интерны
Год выпуска: 2010-2011
Страна: Россия / 7 Арт Медиа
Жанр: Комедия

Дата российской премьеры: 29 марта 2010
Релиз на DVD: 15 мая 2010

Режиссер: Максим Пежемский, Заур Болотаев, Милан Килибарда, Евгений Невский, Радда Новикова
Актеры: Иван Охлобыстин, Кристина Асмус, Илья Глинников, Дмитрий Шаракоис, Александр Ильин (младший), Вадим Демчог, Светлана Камынина, Светлана Пермякова, Один Ланд Байрон, Мария Пирогова, Татьяна Лянник, Любовь Кондрашова, Екатерина Радченко, Михаил Петухов, Ирина Гавра, Юрий Вьюшкин, Олег Чернигов, Вадим Кашмай, Алиса Сапегина, Анатолий Берман, Алексей Мишаков (II), Юрий Брешин, Марина Орлова, Григорий Скряпкин, Анатолий Отраднов, Евгения Дюло, Светлана Фатина, Альбина Евтушевская, Олег Соколов (III), Виталий Пестеров, Евгений Волоцкий, Ольга Кравцова

Описание фильма:
Сериал посвящён работе молодых неопытных интернов, постоянно попадающих в нелепые ситуации. Ими руководит заведующий терапевтическим отделением — доктор Быков, постоянно над ними подшучивающий. Помогают Быкову и наблюдают за приключениями интернов его друг, доктор-венеролог Купитман, и медсестра Любовь Михайловна Скрябина, а наводит порядок в больнице главврач Анастасия Кисегач
Продолжительность: 8 x ~ 04:08:00
Качество видео: DVD9

Видеокодек: MPEG-2
Битрейт видео: ~5684 kbps avg
Размер кадра: 720 x 576 (PAL 4:3)
Аудиокодек: MP2
Битрейт аудио: 48.0 kHz, MPEG-1 Audio Layer 2, 2 ch ~192 Kbps avg
  • Meню озвученное, статичное, с навигацией по эпизодам
Размер: 8 х DVD9

  • Диск 1 - 7.55 GB
  • Диск 2 - 7.54 GB
  • Диск 3 - 7.47 GB
  • Диск 4 - 7.41 GB
  • Диск 5 - 7.54 GB
  • Диск 6 - 7.79 GB
  • Диск 7 - 7.55 GB
  • Диск 8 - 7.54 GB
Формат : MPEG-PS
Размер файла : 1024 Мбайт
Режим общего битрейта : Переменный

Видео
Идентификатор : 224 (0xE0)
Формат : MPEG Video
Версия формата : Version 2
Профиль формата : Main@Main
Параметр BVOP формата : Да
Параметр матрицы формата : Выборочная
Продолжительность : 7 м. 30 с.
Вид битрейта : Переменный
Битрейт : 5684 Кбит/сек
Максимальный битрейт : 9000 Кбит/сек
Ширина : 720 пикселей
Высота : 576 пикселей
Соотношение сторон : 4:3
Частота кадров : 25,000 кадров/сек
Стандарт вещания : PAL
Цветовое пространство : YUV
Субдискретизация насыщенности : 4:2:0
Битовая глубина : 8 бит
Тип развёртки : Чересстрочная
Порядок развёртки : Верхнее поле первое
Метод сжатия : С потерями
Бит/(Пиксели*Кадры) : 1.783
Размер потока : 993 Мбайт (97%)

Аудио
Идентификатор : 189 (0xBD)-128 (0x80)
Формат : AC-3
Формат/Информация : Audio Coding 3
Расширение режима : CM (complete main)
Режим смешивания : DVD-Video
Продолжительность : 7 м. 30 с.
Вид битрейта : Постоянный
Битрейт : 192 Кбит/сек
Каналы : 2 канала
Расположение каналов : Front: L R
Частота : 48,0 КГц
Битовая глубина : 16 бит
Метод сжатия : С потерями
Размер потока : 10,3 Мбайт (1%)

Меню
*******************
Title: Новый том
Size: 7.55 Gb ( 7 919 628 KBytes ) - DVD-9
Enabled regions: 1, 2, 3, 4, 5, 6, 7, 8

VTS_01 :
Play Length: 04:08:46
Video: PAL 4:3 (720x576) VBR
Audio:
Russian (Dolby AC3, 2 ch)

Скриншоты:





Время раздачи: 24/7
[NNM-Club.ru]_Interny.(1-4.sezony).2010-2011.8xDVD-9.torrent
 Торрент: Платиновая раздача  Зарегистрирован
 
Скачать


 Зарегистрирован:   19 Фев 2012 09:11:23
 Размер:   60,4 GB  (
 Рейтинг:   4,8 (Голосов: 79)
 Поблагодарили:   236
 Проверка:   Оформление проверено модератором 19 Фев 2012 09:12:23
Как cкачать  ·  Как раздать  ·  Правильно оформить  ·  Поднять ратио!  
Codename87
Стаж: 9 лет 9 мес.
Сообщений: 966
Ratio: 22,856
Раздал: 14,48 TB
Поблагодарили: 12729
100%
Откуда: KGN
russia.gif
Есть все на сегодняшний день серии, правда в TVRip'е. Так что качать не буду, но спасибо поставлю. Ибо сериал отпадный и качество думаю что тоже.
з.ы: жду продолжения...

_________________
If life is doing you good, enjoy the moment...
Paradizmo
Стаж: 8 лет 8 мес.
Сообщений: 19
Ratio: 6,13
100%
ukraine.gif
И 5-й сезон ждем-пождем! :супер!:
qwert_y
Стаж: 9 лет 1 мес.
Сообщений: 24
Ratio: 8,212
Поблагодарили: 706
100%
ukraine.gif
Коли будуть нові серії?
Garfieldfeo
Стаж: 9 лет 10 мес.
Сообщений: 26
Ratio: 3,54
35.73%
Откуда: Феодосия
russia.gif
Если верить КиноПоиску 1-я часть 5-го сезона вышла на DVD 12 апреля. 2-я часть увидит свет 26 апреля.
SarDmitriy
Стаж: 8 лет 7 мес.
Сообщений: 570
Ratio: 3,762
Поблагодарили: 3752
100%
Спасибо за серии
Alex_pnz
 
Стаж: 10 лет
Сообщений: 964
Ratio: 58,006
Поблагодарили: 2
100%
Откуда: Россия
ussr.gif
все 120 серий будут?

_________________
Так хочется быть добрым и порядочным, особенно, когда понимаешь, что патронов на всех никогда не хватит.
Поверь мой друг, пройдёт она, и демократия и гласность, и вот тогда, госбезопасность, припомнит ваши имена...
user_25
Стаж: 7 лет 4 мес.
Сообщений: 1
Ratio: 1,756
Поблагодарили: 6
42.86%
Хотелось бы видеть в этой раздаче и 81-90 серии http://nnmclub.to/forum/viewtopic.php?t=521156.
maxxsum
Стаж: 9 лет 8 мес.
Сообщений: 15
Ratio: 0,37
100%
russia.gif
я удалил этот фильм и сновахачу скачать а не качается
Иоанн2007
Стаж: 2 года 9 мес.
Сообщений: 5
Ratio: 3,277
48.04%
вообще не скачивается
prof-f-esor1979
Стаж: 7 лет 10 мес.
Сообщений: 12
Ratio: 115,962
100%
russia.gif
Чё за фигня? Не качает, встаньте на раздачу!
Показать сообщения:   
Начать новую тему   Ответить на тему    Торрент-трекер NNM-Club -> Отечественные сериалы -> Интерны Часовой пояс: GMT + 3
Страница 1 из 1