Классический форум-трекер
canvas not supported
Нас вместе: 4 093 475

Война миров. Музыкальная версия Джеффа Уэйна / Jeff Wayne's Musical Version of The War of the Worlds (2006) DVDRip [EN / RU Sub]


 
 
RSS
Начать новую тему   Ответить на тему    Торрент-трекер NNM-Club -> Театр и Музыкальное видео -> Опера, Балет, Мюзиклы
Автор Сообщение
Николай Анатольевич ®
   
Почетный релизер
 
Стаж: 10 лет 1 мес.
Сообщений: 46538
Ratio: 10,129
Раздал: 7,718 TB
Поблагодарили: 2607415
100%
estonia.gif
Война миров. Музыкальная версия Джеффа Уэйна (2006) DVDRip
Jeff Wayne's Musical Version of The War of the Worlds

Производство: Великобритания, Double Jab, Ollie Record, Universal Pictures
Жанр: Мюзикл, рок-опера
Перевод: Оригинальный
Субтитры: Русские

Режиссер: Дэвид Мале
Исполнители: Ричард Бёртон, Джастин Хейворд, Алексис Джеймс, Анна-Мария Уэйн, Крис Томпсон, Расселл Уотсон, Тара Блэйз

Описание:
«Никто не поверил бы в последние годы девятнадцатого столетия, что за всем происходящим на Земле зорко и внимательно следят существа более развитые, чем человек, хотя такие же смертные, как и он; что в то время, как люди занимались своими делами, их исследовали и изучали, может быть, так же тщательно, как человек в микроскоп изучает эфемерных тварей, кишащих и размножающихся в капле воды»... Знаменитая рок-опера по мотивам романа Герберта Уэллса «Война миров». Музыка была написана Джефом Уэйном. Гари Осборн (Gary Osborne) и Пол Виграсс (Paul Vigrass) помогли с созданием текстов, а Дорин Уэйн (Doreen Wayne) — со сценарием, основаном на романе Уэллса. 9 июня 1978 года, через 80 лет после выхода романа, музыкальная версия Войны Миров Джефа Вейна была представлена в Лондонском Планетарии в сопровождении со специальными мультимедийными эффектами. Целых шесть лет альбом не покидал чарты Великобритании. В настоящий момент в мире продано более 6 миллионов копий. Музыкальная версия, как и книга разделена на две части: «Прибытие марсиан» (в пяти композициях) и «Земля под властью марсиан» (в семи). В постановке 2006 года использован пессимистический вариант эпилога, отличающийся от романа: уже когда вы думаете, что все хорошо, что хорошо кончается, теряется связь с человеческой экспедицией на Марс, на поверхности которого незадолго до этого видели странную зеленую вспышку...



Продолжительность: 01:50:08
Качество видео: DVDRip

Видеокодек: XviD
Битрейт видео: 1430 Кбит/с
Размер кадра: 704x400
Аудио: Английский, АС3, 6 ch, 448 Кбит/с
    РИЧАРД БЁРТОН (Richard Burton) - Журналист, рассказчик (речь)
    ДЖАСТИН ХЕЙВОРД (Justin Hayward) - Журналист (вокал)
    РАССЕЛ УОТСОН (Russell Watson) - Пастор Натаниэль
    КРИС ТОМПСОН (Chris Thompson) - Голос человечества
    ТАРА БЛЭЙЗ (Tara Blaise) - Бет
    АЛЕКСИС ДЖЕЙМС (Alexis James) - Артиллерист
    АННА-МАРИЯ УЭЙН (Anna-Marie Wayne) - Кэрри
Общее
Полное имя : F:\Раздачи\Война миров. Музыкальная версия Джеффа Уэйна (2006) DVDRip\Jeff.Wayne-The.War.of.the.Worlds.2006.XviD.DVDRip.avi
Формат : AVI
Формат/Информация : Audio Video Interleave
Размер файла : 1,45 Гбайт
Продолжительность : 1 ч. 50 м.
Общий поток : 1888 Кбит/сек
Название фильма : Jeff Wayne's Musical Version of The War of the Worlds
Режиссёр : Rip by MC
Жанр : Rock opera
Программа кодирования : VirtualDubMod 1.5.4.1 (build 2066/release)
Формат оригинала/Имя : Music Video
Примечание : www.kinozal.tv

Видео
Идентификатор : 0
Формат : MPEG-4 Visual
Профиль формата : Advanced Simple@L5
Параметр BVOP формата : 2
Параметр QPel формата : Нет
Параметр GMC формата : Без точки перехода
Параметр матрицы формата : Default (MPEG)
Идентификатор кодека : XVID
Идентификатор кодека/Подсказка : XviD
Продолжительность : 1 ч. 50 м.
Битрейт : 1430 Кбит/сек
Ширина : 704 пикселя
Высота : 400 пикселей
Соотношение сторон : 16:9
Частота кадров : 25,000 кадров/сек
Цветовое пространство : YUV
Субдискретизация насыщенности : 4:2:0
Битовая глубина : 8 бит
Тип развёртки : Прогрессивная
Метод сжатия : С потерями
Бит/(Пиксели*Кадры) : 0.203
Размер потока : 1,10 Гбайт (76%)
Библиотека кодирования : XviD 64

Аудио
Идентификатор : 1
Формат : AC-3
Формат/Информация : Audio Coding 3
Расширение режима : CM (complete main)
Идентификатор кодека : 2000
Продолжительность : 1 ч. 50 м.
Вид битрейта : Постоянный
Битрейт : 448 Кбит/сек
Каналы : 6 каналов
Расположение каналов : Front: L C R, Side: L R, LFE
Частота : 48,0 КГц
Битовая глубина : 16 бит
Метод сжатия : С потерями
Задержка видео : 24 мс.
Размер потока : 353 Мбайт (24%)
Выравнивание : Разделение по промежуткам
Продолжительность промежутка : 40 мс. (1,00 видеокадр)
Время предзагрузки промежутка : 500 мс.

Общее
Полное имя : F:\Раздачи\Война миров. Музыкальная версия Джеффа Уэйна (2006) DVDRip\Jeff.Wayne-The.War.of.the.Worlds.2006.XviD.DVDRip.srt
Формат : SubRip
Размер файла : 52,3 Кбайт

Текст
Формат : SubRip
Метод сжатия : Без потерь
Скриншоты:

Время раздачи: 9.00 - 23.00 (по мере возможности...)
[NNM-Club.ru]_Voyna mirov. Muzyikal'naya versiya Dzheffa Uyeyna (2006) DVDRip.torrent
 Торрент: Платиновая раздача  Зарегистрирован
 
Скачать


Примагнититься
 Зарегистрирован:   19 Фев 2012 17:31:02
 Размер:   1,45 GB  (
 Рейтинг:   4,7 (Голосов: 34)
 Поблагодарили:   116
 Проверка:   Оформление проверено модератором 19 Фев 2012 18:20:57
Как cкачать  ·  Как раздать  ·  Правильно оформить  ·  Поднять ратио!  
Next
FTP 85
Uploader 100+
Стаж: 12 лет 6 мес.
Сообщений: 2606
Ratio: 317,436
Раздал: 180,7 TB
Поблагодарили: 45338
100%
russia.gif
Отличная рок-опера. Встречал только DVD9, а тут тебе и размерчик подходящий, да и субтитры. Весьма признателен за материал. :)
kosmosa
Стаж: 8 лет 5 мес.
Сообщений: 33
Ratio: 96,821
Раздал: 15,94 TB
100%
=)
Показать сообщения:   
Начать новую тему   Ответить на тему    Торрент-трекер NNM-Club -> Театр и Музыкальное видео -> Опера, Балет, Мюзиклы Часовой пояс: GMT + 3
Страница 1 из 1