Классический форум-трекер
canvas not supported
Нас вместе: 4 079 345

Для тех, кто хочет научиться делать релизы в разделах "Видео" -> "Отечественные Фильмы для детей"


 
 
RSS
Начать новую тему   Ответить на тему    Торрент-трекер NNM-Club -> Видео -> Отечественные Фильмы для детей
Автор Сообщение
W.K. ®
Стаж: 8 лет 7 мес.
Сообщений: 637
Ratio: 272,422
Поблагодарили: 23076
100%
ussr.gif
Для тех, кто хочет научиться делать релизы в разделах "видео"
Итак, у вас есть материал, который вы хотите выложить на нашем http://nnm-club.me/ . Но вы никогда этого не делали и боитесь, что не справитесь с технической стороной вопроса. А давайте сейчас вместе сделаем релиз? Уверен, что вы еще раз убедитесь в правильности пословицы: "Глаза боятся - руки делают!" Скорее всего даже понравится! Решились? Молодцы!
Релизить будем отечественный фильм "Азарис Нуна". Можете посмотреть его описание здесь . Но начнем не с самого релиза, а подготовки к его (да и остальных тоже) оформлению. Все что вам нужно, вы можете найти в Правила и рекомендации по оформлению релизов категории "ВИДЕО" [29.09.2011] . Для начала, при помощи поисков http://nnm-club.me/forum/search.php и http://nnm-club.me/forum/tracker.php убеждаемся, что этого фильма в таком качестве, в котором мы будем его выкладывать, у нас на трекере нет Как пользоваться поиском ( Расширенный вариант ) . Для полнометражного видео почти всегда достаточно зайти на портал http://nnm-club.me/ ,
вставить в окошко

название и нажать "Искать".
Далее ищем обложку, но выбираем её в соотвествии с правилами, в которых по этому поводу говорится, что...
Цитата:
Обложка

2.1 Размер обложки не должен превышать 640*480 (480*640) пикселей
рекомендуется не шире 400 пикселей.
2.2 Размер обложки должен быть не меньше 300*300 пикселей.
2.3 Обложка, в отличии от скриншотов, должна быть полноразмерной, а не кликабельной миниатюрой.
На обложке не должно быть упоминания сторонних интернет ресурсов (исключение - домашняя страница авторских фильмов)
Обложку можно найти, воспользовавшись поисковой системой Google-Картинки
Если обложку не удается найти на просторах Интернет, и только в этом случае, то ее может заменить скриншот с названием фильма.

Итак, идем на http://images.google.ru/ и вставляем в поисковик название видео. Выбираем обложку, кликаем по ней ЛКМ, она открывается, кликаем ПКМ > "Сохранить как" и указываете путь сохранения.
Обложка у нас есть и теперь ее надо залить на фотохостинг. Естественно это будет http://imageshack.us/ . Спросите почему? Ознакомьтесь с О фотохостингах. Особое внимание релизерам! (Обновляемая) . В этой ссылке есть возможность скачать программу Image Uploader. Настойчиво рекомендую установить ее у себя. Этим вы сразу избавите себя и модераторов от головной боли при заливке и проверке картинок! А красота то какая!
Все очень просто. Установили, открыли. Обновите ее
.
А теперь будем заливать обложку. Кликаем "Добавить изображения". Ищем путь к скачанной ранее обложке и нажимаем "Открыть"

Жмем "Далее". Видим вот что

Это настройки. Где цифра 1, обязательно выбирайте из списка imageshack.us и если вы там зарегестрировались, то регистрационные данные вставляются туда, где я замазал. Где цифра 2, там выбирается хост. Этот я выбрал потому, что там регистрация не требуется. Жмем "Загрузить". Пошла загрузка, после чего мы видим
.
Для получения обложки нажимаем "Просто ссылки(URL)". Копируем данные из окна и вставляем в верхнюю строчку релиз-визарда http://nnm-club.me/forum/release.php?what=child_video_movie_rus (это тот шаблон, в котором вы будете делать оформление). При этом кнопку "Загрузить картинку" трогать не надо! Все, обложка готова.
Что бы залить скриншоты (как их сделать и добавить к оформлению поговорим ниже) повторяем все то же, что и для заливки обложки, но за исключением двух моментов...
Во первых, после клика на "Добавить изображения" вы указываете путь на сохраненные кадры из вашего видео и выделяете их ВСЕ.
Во вторых, после того как они загрузились, жмем не на "Просто ссылки(URL)", а на "Для форума (BBCode)" Готово! Любуемся своей работой!




Спросите, почему их семь? Да нравится мне так! Но нравится мне и вам может только в рамках Правила и рекомендации по оформлению релизов категории "ВИДЕО" [29.09.2011]
Ну вот мы с вами и освоили основные моменты при работе с Image Uploader. Теперь весь процесс заливки картинок у вас сократился до пары минут!
Теперь поближе познакомимся с релиз - визардом, где вы будете оформлять релиз. Для этого фильма нужен http://nnm-club.me/forum/release.php?what=child_video_movie_rus . С другими можно познакомиться на http://nnm-club.me/forum/release.php . Нам нужен под названием "Релиз в раздел "Отечественные фильмы для детей"". В общем-то там все предельно ясно, но пробежимся по нему. Позицию "Обложка" мы уже победили. До позиции "Видеокодек" проблем не возникнет. А вот с этого места поподробнее...
Итак, опять обращаемся к правилам...
Цитата:
9.1 Информация о качестве файла должна быть взята с раздаваемой копии и содержать следующие атрибуты:

9.1.1 Качество видео (напр. DVDRip, SATRip, TVRip, VHSRip)
9.1.2 Размер кадра (в пикселях, то, что показывают инфо.утилиты)
9.1.3 Видеокодек (напр. DivX, Xvid, MPEG-2 и т.п.)
9.1.4 Битрейт видео (единица измерения kbps а не fps <килобиты в секунду, а не кадры в секунду>)
9.1.5 Аудиокодек (напр. MP3, AC3 и т.п.) и Кол-во каналов (напр. 2.0, 5.1 и т.п.)
9.1.6 Битрейт аудио (единица измерения kbps)
9.2 В случае, если раздается сборник (трилогия и т.п.) то информация о качестве обязательна для каждого видеофайла
9.3 В случае, если имеется две или более звуковых дорожек следует указать для каждой из них аудиукодек, кол-во каналов, аудиобитрейт и тип озвучки (оригинал, перевод)
Важно!
9.4 Обязательным условием оформления видео-релизов на трекере, является наличие отчета одной из полезных утилит: MediaInfo, GSpot, DVDInfo, BDInfo - позволяющие получать техническую информацию о видео- или аудио- файле(ах). В зависимости от формата выкладываемого материала, релизер должен воспользоваться подходящей для этого программой и оформить отчет в релизе еще до проверки темы модератором. Причем, отчет в релизе должен быть в текстовом формате, а весь текст под спойлер-ом. В качестве спойлера необходимо использовать тег hide.

Чтобы собрать такую кучу информации заходим сюда Как узнать битрейт раздаваемого файла Применительно к этому фильму нас интересует программа MediaInfo. В этой ссылке даны подробнейшие инструкции для скачивания, установки и пользования этой очень полезной штуки! Кстати, изучите и другие программы. Вам наверняка придется выкладывать видео разных форматов.
Отчет медиаинфо для нашего фильма будет выглядеть так:
Общее
Уникальный идентификатор : 248894550960342223482116494301368758794 (0xBB3F58CC6706A498B540101DD919320A)
Полное имя : D:\Downloads\Азирис Нуна.mkv
Формат : Matroska
Размер файла : 7,29 Гбайт
Продолжительность : 1 ч. 38 м.
Общий поток : 10,6 Мбит/сек
Дата кодирования : UTC 2010-03-29 17:13:22
Программа кодирования : mkvmerge v2.9.7 ('Tenderness') built on Jul 1 2009 18:43:35
Библиотека кодирования : libebml v0.7.7 + libmatroska v0.8.1

Видео
Идентификатор : 1
Формат : AVC
Формат/Информация : Advanced Video Codec
Профиль формата : High@L4.1
Параметр CABAC формата : Да
Параметр ReFrames формата : 4 кадра
Идентификатор кодека : V_MPEG4/ISO/AVC
Продолжительность : 1 ч. 38 м.
Битрейт : 10000 Кбит/сек
Ширина : 1920 пикс.
Высота : 1080 пикс.
Соотношение сторон : 16:9
Частота кадров : 23,976 кадр/сек
Цветовое пространство : YUV
Подвыборка цветности : 4:2:0
Битовая глубина : 8 бит
Тип развёртки : Прогрессивная
Бит/(Пиксели*Кадры) : 0.201
Размер потока : 6,70 Гбайт (92%)
Библиотека кодирования : x264 core 80 r1376M 3feaec2
Настройки программы : cabac=1 / ref=4 / deblock=1:-3:-3 / analyse=0x3:0x133 / me=umh / subme=9 / psy=1 / psy_rd=1.0:0.0 / mixed_ref=1 / me_range=16 / chroma_me=1 / trellis=0 / 8x8dct=1 / cqm=0 / deadzone=21,11 / fast_pskip=0 / chroma_qp_offset=-2 / threads=3 / sliced_threads=0 / nr=0 / decimate=1 / mbaff=0 / constrained_intra=0 / bframes=4 / b_pyramid=2 / b_adapt=2 / b_bias=0 / direct=1 / wpredb=1 / wpredp=2 / keyint=250 / keyint_min=25 / scenecut=40 / rc_lookahead=0 / rc=2pass / mbtree=0 / bitrate=10000 / ratetol=1.0 / qcomp=0.60 / qpmin=10 / qpmax=51 / qpstep=4 / cplxblur=20.0 / qblur=0.5 / vbv_maxrate=50000 / vbv_bufsize=50000 / ip_ratio=1.40 / pb_ratio=1.30 / aq=1:1.00
Язык : Russian

Аудио
Идентификатор : 2
Формат : AC-3
Формат/Информация : Audio Coding 3
Расширение режима : CM (complete main)
Идентификатор кодека : A_AC3
Продолжительность : 1 ч. 38 м.
Вид битрейта : Постоянный
Битрейт : 640 Кбит/сек
Каналы : 6 каналов
Расположение каналов : Front: L C R, Side: L R, LFE
Частота : 48,0 КГц
Битовая глубина : 16 бит
Метод сжатия : С потерями
Размер потока : 449 Мбайт (6%)
Язык : Russian
Тег для него должен выглядеть так:
Код: выделить все
[hide=MediaInfo]Сюда скопировать отчет медиаинфо[/hide]

Выбираем из отчета нужную для релиз - визарда информацию и получаем:

Видеокодек: MPEG-4 AVC/H.264
Битрейт видео: ~10000 Кбит/сек
Размер кадра: 1920 x 1080
Качество видео: BDRip
Аудиокодек: AC3 5.1
Битрейт аудио: 640 Кбит/сек

Внимательно просмотрите содержимое отчета! Например иногда там могут быть забиты ссылки на сторонние ресурсы. Обязательно их удаляйте! Если отчет показывает несколько аудиодорожек, наличие субтитров, то все это должно быть отражено в оформлении с указанием характеристик. Что бы учесть все эти и другие нюансы, не ленитесь почаще заглядывать в Правила и рекомендации по оформлению релизов категории "ВИДЕО" [29.09.2011] !
В этой теме Как сделать скриншоты с Видео все очень подробно, в картинках описано чем и как снимать скриншоты. Пробовал их делать многими плеерами и подтверждаю рекомендацию - достойной альтернативы VLC плееру в этом деле нет! Только один маленький совет. Поменяйте формат снимков, в котором плеер их делает, на PNG. Будете релизить HD видео, без этого не обойтись.

Прочитайте здесь, какими должны быть скриншоты Правила и рекомендации по оформлению релизов категории "ВИДЕО" [29.09.2011]
Теперь вернемся к релиз - визарду. Так как мы договорились с вами, что теперь пользуемся загрузчиком картинок Image Uploader, то гордо проходим мимо позиций "Скриншоты" (вставим их потом, но сразу все). Заполняем "Время раздачи" и жмем кнопку "Продолжить".
Переходим на страничку, где вы можете скорректировать или выбрать форум для вашего видео, а так же еще раз проверить, не является ли оно повтором. Все в порядке? Нажимаем "Предварительный просмотр".
Вот тут вы увидете, как выглядит ваше оформление и сможете добавить отчет медиаинфо и скриншоты в окне "Редактировать сообщение".
Отчет медиаинфо выкладывается под спойлером (тег hide) над последней строкой ("Время раздачи").
Скриншоты выкладываются под отчетом медиаинфо в открытом виде, без спойлера.
На этом оформление мы с вами закончили!
Код: выделить все
[align=center][color=indigo][size=20][b]Азирис Нуна (2006) BDRip[/b][/size][/color][/align][hr]
[poster=right]http://img10.imageshack.us/img10/1926/3fa782df6a2f.png[/poster]

[b]Русское название:[/b] Азирис Нуна
[b]Год выпуска:[/b] 2006
[b]Жанр:[/b] Фантастика, Приключения, Семейный

[b]Описание фильма:[/b]
По мотивам фантастической повести Юрия Буркина и Сергея Лукьяненко "Сегодня, мама!".
Приключения во времени и пространстве двух братьев-подростков из семьи московских археологов: путешествие в будущее, спасение из космической тюрьмы, странствия по Древнему Египту, планеты, населенные сфинксами, битва с летающим роботом, побег от грозного фараона, поединок с восставшей из мертвых мумией…

[b]Режиссер:[/b] Олег Компасов
[b]Актеры:[/b] Филипп Авдеев, Роман Керимов, Максим Аверин, Нонна Гришаева, Вячеслав Гришечкин, Елена (Алена) Ивченко, Александр Лазарев-мл., Александр Филиппенко, Семен Фурман, Андрей Бархударов, Александр Беляев, Юрий Ваксман, Валерий Гириз, Владимир Гусев, Мария Козакова, Андрей Лукьянов, Спартак Мишулин

[b]Продолжительность:[/b] 01:38:02

[kp]161182[/kp] [img]http://i1.imageban.ru/out/2011/11/18/0650156aed7d66da3a76d1bd5eb50fab.gif[/img]

[b]Видеокодек:[/b] MPEG-4 AVC/H.264
[b]Битрейт видео:[/b] ~10000 Кбит/сек
[b]Размер кадра:[/b] 1920 x 1080
[b]Качество видео:[/b] BDRip
[b]Аудиокодек:[/b] AC3 5.1
[b]Битрейт аудио:[/b] 640 Кбит/сек
[hide=MediaInfo]
Общее
Уникальный идентификатор         : 248894550960342223482116494301368758794 (0xBB3F58CC6706A498B540101DD919320A)
Полное имя                       : D:\Downloads\Азирис Нуна.mkv
Формат                           : Matroska
Размер файла                     : 7,29 Гбайт
Продолжительность                : 1 ч. 38 м.
Общий поток                      : 10,6 Мбит/сек
Дата кодирования                 : UTC 2010-03-29 17:13:22
Программа кодирования            : mkvmerge v2.9.7 ('Tenderness') built on Jul  1 2009 18:43:35
Библиотека кодирования           : libebml v0.7.7 + libmatroska v0.8.1

Видео
Идентификатор                    : 1
Формат                           : AVC
Формат/Информация                : Advanced Video Codec
Профиль формата                  : High@L4.1
Параметр CABAC формата           : Да
Параметр ReFrames формата        : 4 кадра
Идентификатор кодека             : V_MPEG4/ISO/AVC
Продолжительность                : 1 ч. 38 м.
Битрейт                          : 10000 Кбит/сек
Ширина                           : 1920 пикс.
Высота                           : 1080 пикс.
Соотношение сторон               : 16:9
Частота кадров                   : 23,976 кадр/сек
Цветовое пространство            : YUV
Подвыборка цветности             : 4:2:0
Битовая глубина                  : 8 бит
Тип развёртки                    : Прогрессивная
Бит/(Пиксели*Кадры)              : 0.201
Размер потока                    : 6,70 Гбайт (92%)
Библиотека кодирования           : x264 core 80 r1376M 3feaec2
Настройки программы              : cabac=1 / ref=4 / deblock=1:-3:-3 / analyse=0x3:0x133 / me=umh / subme=9 / psy=1 / psy_rd=1.0:0.0 / mixed_ref=1 / me_range=16 / chroma_me=1 / trellis=0 / 8x8dct=1 / cqm=0 / deadzone=21,11 / fast_pskip=0 / chroma_qp_offset=-2 / threads=3 / sliced_threads=0 / nr=0 / decimate=1 / mbaff=0 / constrained_intra=0 / bframes=4 / b_pyramid=2 / b_adapt=2 / b_bias=0 / direct=1 / wpredb=1 / wpredp=2 / keyint=250 / keyint_min=25 / scenecut=40 / rc_lookahead=0 / rc=2pass / mbtree=0 / bitrate=10000 / ratetol=1.0 / qcomp=0.60 / qpmin=10 / qpmax=51 / qpstep=4 / cplxblur=20.0 / qblur=0.5 / vbv_maxrate=50000 / vbv_bufsize=50000 / ip_ratio=1.40 / pb_ratio=1.30 / aq=1:1.00
Язык                             : Russian

Аудио
Идентификатор                    : 2
Формат                           : AC-3
Формат/Информация                : Audio Coding 3
Расширение режима                : CM (complete main)
Идентификатор кодека             : A_AC3
Продолжительность                : 1 ч. 38 м.
Вид битрейта                     : Постоянный
Битрейт                          : 640 Кбит/сек
Каналы                           : 6 каналов
Расположение каналов             : Front: L C R, Side: L R, LFE
Частота                          : 48,0 КГц
Битовая глубина                  : 16 бит
Метод сжатия                     : С потерями
Размер потока                    : 449 Мбайт (6%)
Язык                             : Russian[/hide]
[align=center][b]Скриншоты:[/b]
[url=http://img401.imageshack.us/img401/4907/vlcsnap00001h.png][img]http://img85.imageshack.us/img85/3407/thumbpc.png[/img][/url]  [url=http://img823.imageshack.us/img823/632/vlcsnap00002ci.png][img]http://img833.imageshack.us/img833/3407/thumbpc.png[/img][/url]  [url=http://img832.imageshack.us/img832/7421/vlcsnap00003sf.png][img]http://img860.imageshack.us/img860/1295/thumbrh.png[/img][/url]  [url=http://img12.imageshack.us/img12/2807/vlcsnap00004y.png][img]http://img100.imageshack.us/img100/8661/thumbh.png[/img][/url]

[url=http://img853.imageshack.us/img853/5933/vlcsnap00005ft.png][img]http://img834.imageshack.us/img834/3461/thumbsfb.png[/img][/url]  [url=http://img7.imageshack.us/img7/849/vlcsnap00006l.png][img]http://img836.imageshack.us/img836/9483/thumbdc.png[/img][/url]  [url=http://img542.imageshack.us/img542/2944/vlcsnap00007n.png][img]http://img853.imageshack.us/img853/8004/thumbjw.png[/img][/url][/align]
Перейдем к последнему этапу. Осталось создать торрент-файл, при помощи которого мы сможем поделится в данном случае фильмом, со всеми пользователями нашего замечательного клуба. Об этом очень подробно и опять таки в картинках описано здесь Как раздавать? (в картинках) .
Не пытайтесь изменить, дополнить, украсить дополнительными тегами в виде теней, изменения шрифта (размер, цвет, курсив и т.д.), разделителями или поменять местами позиции в главном информационном поле релиз-визарда! На примере нашего релиза я отметил его красной рамкой.

Есть большая вероятность того, что в этом случае он некорректно будет отображаться на портале.
Еще есть любители вставлять в оформление всякие анимашки, мигалки и сверкалки, которые выпрашивают спасибки и тому подобные вещи. Так вот это не смешно, не красиво да и просто лишняя нагрузка на сервер. Такие глупости скорее всего будут просто удалены модераторами. Не тратьте их и своё время! Делайте оформление по релиз-визарду без изменений и у вас будет минимум проблем! В нашем релизе я позволил себе вставить лейбл RG "Всё лучшее детям!", выровнял расположение скриншотов по центру и в конце пожелал всем приятного просмотра! Но пока вы не доведете свои умения до уверенного уровня, то не рекомендую даже этого.
:супер!: Мы сделали это!!! Азирис Нуна (2006) [H.264/1080p] BDRip Трудились над релизом все вместе, а автором числюсь я. Поэтому желаю будущим релизерам радовать всех пользователей своими прекрасными фильмами, мультиками, играми, музыкой, книгами и т.д., а модераторов их грамотным оформлением! :пока:

P.S.
Если вы хотите сделать релиз в разделах Видео для детей и родителей а так же Мультфильмы и у вас возникли трудности с оформлением даже после всего прочтенного выше, пишите мне в Л.С. Постараюсь помочь!

_________________
Agir
Покровитель талантов
 
Стаж: 10 лет
Сообщений: 816
Ratio: 99,909
Поблагодарили: 49635
100%
W.K.
Спасибо!
Надо попробовать. :да:

_________________
Спасибо за за все!
W.K. ®
Стаж: 8 лет 7 мес.
Сообщений: 637
Ratio: 272,422
Поблагодарили: 23076
100%
ussr.gif
Agir
Пожалуйста! Опыт хоть и не в видео у Вас есть, уверен, что справитесь! :пока:

_________________
аркуда
Стаж: 8 лет 11 мес.
Сообщений: 1064
Ratio: 40,268
Раздал: 10,13 TB
Поблагодарили: 22279
100%
russia.gif
А-громадное спасибо!!! Все сделал по понятной и подробной инструкции. :респект:

_________________
"Все преходяще - музыка вечна!"
W.K. ®
Стаж: 8 лет 7 мес.
Сообщений: 637
Ratio: 272,422
Поблагодарили: 23076
100%
ussr.gif
аркуда
Приветствую! :приветствую: Пожалуйста! Такое сообщение как Ваше, это лучшая оценка моих скромных усилий... Значит получилось не только у Вас, но и у меня! :да:

_________________
karfagen111
Стаж: 6 лет 9 мес.
Сообщений: 15
Ratio: 1,486
Поблагодарили: 197
44.98%
ussr.gif
Твоя программа Полное ФУФЛО
Есть ли в нете какая то программа для нормальной заливки скриншотов (если формат видео BDRip)
И как правильно грузить полученные скриншоты на сайт
Показать сообщения:   
Начать новую тему   Ответить на тему    Торрент-трекер NNM-Club -> Видео -> Отечественные Фильмы для детей Часовой пояс: GMT + 3
Страница 1 из 1