Классический форум-трекер
canvas not supported
Нас вместе: 4 078 913

Братц. Приключения в Лондоне / Bratz: London (2011) DVDRip


 
 
RSS
Начать новую тему   Ответить на тему    Торрент-трекер NNM-Club -> Мультфильмы -> Зарубежные Мультфильмы для детей
Автор Сообщение
svlesin ®
Модератор Документалистики/TV
RG Releasers
Релизер 25000+ Uploader 300+
 
Стаж: 9 лет 10 мес.
Сообщений: 33782
Ratio: 1751,288
Поблагодарили: 3250288
100%
russia.gif
Братц. Приключения в Лондоне / Bratz: London (2011) DVDRip
Русское название: Братц. Приключения в Лондоне
Оригинальное название: Bratz: London

Год выпуска: 2011
Жанр: Компьютерная анимация, Детский, Приключения

Описание:
Не только в Париже проходят самые модные показы! В новых сериях дружных девчонок Братц занесло в прекрасную и загадочную столицу туманного Альбиона — в Лондон! Их ждут невероятные приключения, о которых дома они не могли и мечтать!

Режиссер: Фил Вайнштайн
Персонажи: Куклы Братц

Продолжительность: 00:42:14
Перевод: Профессиональный многоголосый

Видеокодек: XviD
Битрейт видео: ~1797 кбит/сек
Размер кадра: 704 х 528, 4:3
Качество видео: DVDRip
Аудио №1 (Rus):48 kHz, MPEG Layer 3, 6 ch, ~256.00 kbps avg
Аудио №2 (Eng): 48 kHz, MPEG Layer 3, 6 ch, ~256.00 kbps avg

Релиз на DVD: 19 января 2012, «New Dream media»
Формат : AVI
Формат/Информация : Audio Video Interleave
Размер файла : 702 Мбайт
Продолжительность : 42 м.
Общий поток : 2324 Кбит/сек
Программа кодирования : VirtualDubModRus 1.5.10.2 (build 2542/release)
Библиотека кодирования : VirtualDubMod build 2542/release

Видео
Идентификатор : 0
Формат : MPEG-4 Visual
Профиль формата : Advanced Simple@L5
Параметр BVOP формата : 1
Параметр QPel формата : Нет
Параметр GMC формата : Без точки перехода
Параметр матрицы формата : Выборочная
Идентификатор кодека : XVID
Идентификатор кодека/Подсказка : XviD
Продолжительность : 42 м.
Битрейт : 1797 Кбит/сек
Ширина : 704 пикселя
Высота : 528 пикселей
Соотношение сторон : 4:3
Частота кадров : 25,000 кадров/сек
Цветовое пространство : YUV
Субдискретизация насыщенности : 4:2:0
Битовая глубина : 8 бит
Тип развёртки : Прогрессивная
Метод сжатия : С потерями
Бит/(Пиксели*Кадры) : 0.193
Размер потока : 543 Мбайт (77%)
Библиотека кодирования : XviD 1.2.1 (UTC 2008-12-04)

Аудио #1
Идентификатор : 1
Формат : AC-3
Формат/Информация : Audio Coding 3
Расширение режима : CM (complete main)
Идентификатор кодека : 2000
Продолжительность : 42 м.
Вид битрейта : Постоянный
Битрейт : 256 Кбит/сек
Каналы : 6 каналов
Расположение каналов : Front: L C R, Side: L R, LFE
Частота : 48,0 КГц
Битовая глубина : 16 бит
Метод сжатия : С потерями
Размер потока : 77,3 Мбайт (11%)
Выравнивание : Разделение по промежуткам
Продолжительность промежутка : 40 мс. (1,00 видеокадр)
Время предзагрузки промежутка : 500 мс.

Аудио #2
Идентификатор : 2
Формат : AC-3
Формат/Информация : Audio Coding 3
Расширение режима : CM (complete main)
Идентификатор кодека : 2000
Продолжительность : 42 м.
Вид битрейта : Постоянный
Битрейт : 256 Кбит/сек
Каналы : 6 каналов
Расположение каналов : Front: L C R, Side: L R, LFE
Частота : 48,0 КГц
Битовая глубина : 16 бит
Метод сжатия : С потерями
Размер потока : 77,3 Мбайт (11%)
Выравнивание : Разделение по промежуткам
Продолжительность промежутка : 40 мс. (1,00 видеокадр)
Время предзагрузки промежутка : 500 мс.
Скриншоты:
Время раздачи: 24/7. До первых 5 скачавших.
Братц / Bratz на NoNaMe Club
[NNM-Club.ru]_Bratts. Priklyucheniya v Londone - Bratz London (2011).avi.torrent
 Торрент: Золотая раздача  Зарегистрирован
 
Зарегистрируйтесь и скачайте торрент!
14 KB

Примагнититься
 Зарегистрирован:   01 Мар 2012 23:16:28
 Размер:   702 MB  (
 Рейтинг:   4 (Голосов: 18)
 Поблагодарили:   60
 Проверка:   Оформление проверено модератором 02 Мар 2012 05:51:57
Как cкачать  ·  Как раздать  ·  Правильно оформить  ·  Поднять ратио!  

_________________
Уважаемые пользователи Клуба! От меня релизов больше не будет. Может быть, буду поддерживать «Обновляемые раздачи». Спасибо всем, кто благодарил меня и говорил/нажимал «Спасибо»!
Загрузка...
Показать сообщения:   
Начать новую тему   Ответить на тему    Торрент-трекер NNM-Club -> Мультфильмы -> Зарубежные Мультфильмы для детей Часовой пояс: GMT + 3
Страница 1 из 1