Классический форум-трекер
canvas not supported
Нас вместе: 4 079 039

Братц. Настоящая дружба / Bratz: True Friendship (2011) DVDRip


 
 
RSS
Начать новую тему   Ответить на тему    Торрент-трекер NNM-Club -> Мультфильмы -> Зарубежные Мультфильмы для детей
Автор Сообщение
svlesin ®
Модератор Документалистики/TV
RG Releasers
Релизер 25000+ Uploader 300+
 
Стаж: 9 лет 10 мес.
Сообщений: 33782
Ratio: 1751,288
Поблагодарили: 3250273
100%
russia.gif
Братц. Настоящая дружба / Bratz: True Friendship (2011) DVDRip
Русское название: Братц. Настоящая дружба
Оригинальное название: Bratz: True Friendship

Год выпуска: 2011
Жанр: Компьютерная анимация, Детский, Приключения

Описание:
Веселые девчонки Братц снова вместе! Каждому знакомо чувство, когда его никто не понимает и, кажется, весь мир отвернулся от него… Но ведь рядом всегда есть настоящие друзья! Модные подружки Братц всегда знают, как поддержать друга в беде, как помочь советом и как повеселиться всем вместе!

Режиссер: Фил Вайнштайн
Персонажи: Куклы Братц

Продолжительность: 01:03:19
Перевод: Профессиональный многоголосый

Видеокодек: XviD
Битрейт видео: ~1283 кбит/сек
Размер кадра: 704 х 528, 4:3
Качество видео: DVDRip
Аудио №1 (Rus):48 kHz, MPEG Layer 3, 6 ch, ~256.00 kbps avg

Релиз на DVD: 24 ноября 2011, «New Dream media»
Формат : AVI
Формат/Информация : Audio Video Interleave
Размер файла : 701 Мбайт
Продолжительность : 1 ч. 3 м.
Общий поток : 1549 Кбит/сек
Программа кодирования : VirtualDubModRus 1.5.10.2 (build 2542/release)
Библиотека кодирования : VirtualDubMod build 2542/release

Видео
Идентификатор : 0
Формат : MPEG-4 Visual
Профиль формата : Advanced Simple@L5
Параметр BVOP формата : 1
Параметр QPel формата : Нет
Параметр GMC формата : Без точки перехода
Параметр матрицы формата : Выборочная
Идентификатор кодека : XVID
Идентификатор кодека/Подсказка : XviD
Продолжительность : 1 ч. 3 м.
Битрейт : 1283 Кбит/сек
Ширина : 704 пикселя
Высота : 528 пикселей
Соотношение сторон : 4:3
Частота кадров : 25,000 кадров/сек
Цветовое пространство : YUV
Субдискретизация насыщенности : 4:2:0
Битовая глубина : 8 бит
Тип развёртки : Прогрессивная
Метод сжатия : С потерями
Бит/(Пиксели*Кадры) : 0.138
Размер потока : 581 Мбайт (83%)
Библиотека кодирования : XviD 1.2.1 (UTC 2008-12-04)

Аудио
Идентификатор : 1
Формат : AC-3
Формат/Информация : Audio Coding 3
Расширение режима : CM (complete main)
Идентификатор кодека : 2000
Продолжительность : 1 ч. 3 м.
Вид битрейта : Постоянный
Битрейт : 256 Кбит/сек
Каналы : 6 каналов
Расположение каналов : Front: L C R, Side: L R, LFE
Частота : 48,0 КГц
Битовая глубина : 16 бит
Метод сжатия : С потерями
Размер потока : 116 Мбайт (17%)
Выравнивание : Разделение по промежуткам
Продолжительность промежутка : 40 мс. (1,00 видеокадр)
Время предзагрузки промежутка : 500 мс.
Скриншоты:
Время раздачи: 24/7. До первых 5 скачавших.
Братц / Bratz на NoNaMe Club
[NNM-Club.ru]_Bratts. Nastoyashchaya druzhba - Bratz True Friendship (2011).avi.torrent
 Торрент: Золотая раздача  Зарегистрирован
 
Зарегистрируйтесь и скачайте торрент!
13,9 KB

Примагнититься
 Зарегистрирован:   01 Мар 2012 23:16:54
 Размер:   701 MB  (
 Рейтинг:   4 (Голосов: 24)
 Поблагодарили:   90
 Проверка:   Оформление проверено модератором 02 Мар 2012 05:51:06
Как cкачать  ·  Как раздать  ·  Правильно оформить  ·  Поднять ратио!  

_________________
Уважаемые пользователи Клуба! От меня релизов больше не будет. Может быть, буду поддерживать «Обновляемые раздачи». Спасибо всем, кто благодарил меня и говорил/нажимал «Спасибо»!
Загрузка...
Показать сообщения:   
Начать новую тему   Ответить на тему    Торрент-трекер NNM-Club -> Мультфильмы -> Зарубежные Мультфильмы для детей Часовой пояс: GMT + 3
Страница 1 из 1