Классический форум-трекер
canvas not supported
Нас вместе: 4 114 091

The Beatles: Вечер трудного дня / A Hard Day's Night (1964) VHSRip


 
 
RSS
Начать новую тему   Ответить на тему    Торрент-трекер NNM-Club -> Театр и Музыкальное видео -> Опера, Балет, Мюзиклы
Автор Сообщение
bazik83 ®
Стаж: 9 лет 6 мес.
Сообщений: 2
Ratio: 5,48
Поблагодарили: 74
0%
The Beatles: Вечер трудного дня / A Hard Day's Night (1964) VHSRip
Год выпуска: 1964
Жанр: Комедия, Музыка

Описание фильма:
Самая известная рок-группа в мире едет из родного Ливерпуля в Лондон, чтобы выступить на телевидении. Музыканты пытаются добраться до студии и не быть разорванными на сувениры восторженными поклонницами, доводят до нервного срыва своего менеджера, развлекаются и влипают в разнообразные приключения. В процессе Полу приходится присматривать за своим дедушкой, Джона отказываются принимать за самого себя, Джордж даёт мастер-класс по бритью, а Ринго открывает в себе революционный настрой и исчезает перед решающим концертом…

Режиссер: Ричард Лестер / Richard Lester
Актеры: Джон Леннон, Пол МакКартни, Джордж Харрисон, Ринго Старр, Уилфрид Брамбелл, Норман Россингтон, Джон Джанкин, Виктор Спинетти, Анна Куэйл

Продолжительность: 01:27:51
Перевод: Одноголосый закадровый
Автор перевода: Григорий Либергал
Дополнительно: В этом переводе дедушка Пола - "аккуратненький"



Видеокодек: DivX 4/5/6
Битрейт видео: ~1 319 Kbps
Размер кадра: 608x352
Качество видео: VHSRip
Аудиокодек: AC3
Битрейт аудио: 128.00 kbps CBR
Сэмпл: Ссылка
D:\Downloads\sample_hdn.avi
General
Complete name : D:\Downloads\sample_hdn.avi
Format : AVI
Format/Info : Audio Video Interleave
File size : 38.6 MiB
Duration : 3mn 17s
Overall bit rate : 1 637 Kbps
Writing application : VirtualDubMod 1.5.10.2 (build 2540/release)
Writing library : VirtualDubMod build 2540/release
Video #0
ID : 0
Format : MPEG-4 Visual
Format settings, BVOP : 1
Format settings, QPel : No
Format settings, GMC : No warppoints
Format settings, Matrix : Default (H.263)
Muxing mode : Packed bitstream
Codec ID : DX50
Codec ID/Hint : DivX 5
Duration : 3mn 17s
Bit rate : 1 499 Kbps
Width : 608 pixels
Height : 352 pixels
Display aspect ratio : 16:9
Frame rate : 23.976 fps
Color space : YUV
Chroma subsampling : 4:2:0
Bit depth : 8 bits
Scan type : Progressive
Compression mode : Lossy
Bits/(Pixel*Frame) : 0.292
Stream size : 35.3 MiB (92%)
Writing library : DivX 5.0.5 (UTC 2003-04-24)
Audio #1
ID : 1
Format : AC-3
Format/Info : Audio Coding 3
Mode extension : CM (complete main)
Codec ID : 2000
Duration : 3mn 17s
Bit rate mode : Constant
Bit rate : 128 Kbps
Channel(s) : 2 channels
Channel positions : Front: L R
Sampling rate : 48.0 KHz
Bit depth : 16 bits
Compression mode : Lossy
Delay relative to video : 10ms
Stream size : 3.02 MiB (8%)
Alignment : Split accross interleaves
Interleave, duration : 42 ms (1.00 video frame)
Interleave, preload duration : 500 ms
Скриншоты:


Время раздачи: 24/7 - круглосуточно
[NNM-Club.ru]_THE BEATLES - A HARD DAY'S NIGHT 1964-akkuratnen'kiy.avi.torrent
 Торрент: Платиновая раздача  Зарегистрирован
 
Скачать


Примагнититься
 Зарегистрирован:   04 Мар 2012 15:59:07
 Размер:   915 MB  (
 Рейтинг:   4,7 (Голосов: 17)
 Поблагодарили:   74
 Проверка:   Оформление проверено модератором 04 Мар 2012 22:39:22
Как cкачать  ·  Как раздать  ·  Правильно оформить  ·  Поднять ратио!  
Показать сообщения:   
Начать новую тему   Ответить на тему    Торрент-трекер NNM-Club -> Театр и Музыкальное видео -> Опера, Балет, Мюзиклы Часовой пояс: GMT + 3
Страница 1 из 1