Классический форум-трекер
canvas not supported
Нас вместе: 4 079 095

SuperBook - Bible Stories / Суперкнига - Библейские сюжеты (2 сезона) [1982, TV, 52] VHSRip raw rus


 
 
RSS
Начать новую тему   Ответить на тему    Торрент-трекер NNM-Club -> Аниме с озвучкой -> Аниме с озвучкой (SD)
Автор Сообщение
Kemchuk ®
Реставратор Клуба
Меценат и Модератор Музыки, КПК и Мобилок, Uploader 100+
 
Стаж: 8 лет 3 мес.
Сообщений: 5804
Ratio: 201,737
Поблагодарили: 21759
100%
Откуда: RUS 50
nnm-club.gif
Суперкнига (Библейские сюжеты) / SuperBook (Bible Stories)
Русское название: Суперкнига (Библейские сюжеты)
Оригинальное название: SuperBook (Bible Stories)
Годы выпуска: 1982
Жанр: Рисованная анимация, мультсериал

Перевод: Многоголосый закадровый, профессиональный
Страна: Япония
Субтитры: Отсутствуют

Режиссер: Хигути Масакадзу
Сценарий: Сакай Акиёси
Персонажи: Джой, Кристофер и робот Робик

Описание фильма:
Два любопытных ребенка находят старую Книгу, которая раскрывает перед ними двери в чудесный мир приключений. Суперкнига переносит Джой, Кристофера, и их игрушечного робота по имени Робик через века назад прямо в эпицентр библейских событий. В сериях этого замечательного христианского мультфильма они повстречаются с Адамом и Евой, Ноем, Самсоном, Давидом. Вместе с Моисеем, они проходят через разверзающиеся воды Красного моря, увидят младенца Иисуса в яслях и поучаствуют во многих приключениях.
Дети с большим интересом смотрят этот мультсериал, запоминая поучительные уроки библейской истории.


Продолжительность: 52 эп. по ~22 мин.

Качество видео: VHSRip
Видеокодек: DivX 4/5
Размер кадра: 704x576 / 332x278
Битрейт видео: ~3100 kbps / ~ 850 kbps
Аудиокодек: MP3 2.0
Битрейт аудио: 128 kb/c
1 сезон

01 - Как все началось
02 - Каин и Авель
03 - Великий потоп
04 - Испытание
05 - Невеста Исаака
06 - Проданное первородство
07 - Вещие сны Иосифа
08 - Чудо жезл
09 - Иерихонские трубы
10 - Горящие светильники Гедеона
11 - Самсон
12 - Первое Рождество
13 - Чудеса любви
14 - Хорошие новости
15 - Любовь к матери
16 - Многострадальный Иов
17 - Иона и кит
18 - Первый царь
19 - Давид и Голиаф
20 - Мудрый Соломон
21 - Истинный пророк
22 - Огненная колесница
23 - Львинный ров
24 - Стены Иерусалима
25 - Прекрасная царица
26 - Удивительное

2 сезон

01 - Где же о где же
02 - Сосиски в тесте
03 - Испытание верности
04 - Любовь с первого взгляда
05 - Папин любимчик
06 - Все о снах
07 - Заложник
08 - Воссоединение семьи
09 - Дар небесный
10 - Горящий куст
11 - Хватит бедствий
12 - Так вы хотите в Египет
13 - Все в ядовитых змеях
14 - Та за которую стоит сражаться
15 - Крепкая левая рука
16 - Увязли в грязи
17 - Обещание
18 - Заслуженный подарок
19 - Чудесный подарок
20 - Могущественный пастушок
21 - С высоты падать больнее
22 - Верный и искренний друг
23 - Царь Давид
24 - В зените славы
25 - Злая царица
26 - Вопрос времени
Общее
Полное имя : Z:\Мои релизы\мультики\SuperBook_2&2\1 сезон\SB 01 Как все началось.avi
Формат : AVI
Формат/Информация : Audio Video Interleave
Размер файла : 509 Мбайт
Продолжительность : 21 м.
Общий поток : 3263 Кбит/сек
Название фильма : VTS_01_1
Программа кодирования : Lavf52.16.0

Видео
Идентификатор : 0
Формат : MPEG-4 Visual
Профиль формата : Simple@L1
Параметр BVOP формата : Нет
Параметр QPel формата : Нет
Параметр GMC формата : Без точки перехода
Параметр матрицы формата : Default (H.263)
Идентификатор кодека : DIVX
Идентификатор кодека/Информация : Project Mayo
Идентификатор кодека/Подсказка : DivX 4
Продолжительность : 21 м.
Битрейт : 3123 Кбит/сек
Ширина : 704 пикселя
Высота : 576 пикселей
Соотношение сторон : 4:3
Частота кадров : 23,976 кадра/сек
Стандарт вещания : PAL
Цветовое пространство : YUV
Субдискретизация насыщенности : 4:2:0
Битовая глубина : 8 бит
Тип развёртки : Прогрессивная
Метод сжатия : С потерями
Бит/(Пиксели*Кадры) : 0.321
Размер потока : 487 Мбайт (96%)
Библиотека кодирования : Lavc51.57.2

Аудио
Идентификатор : 1
Формат : MPEG Audio
Версия формата : Version 1
Профиль формата : Layer 3
Режим : Joint stereo
Расширение режима : MS Stereo
Идентификатор кодека : 55
Идентификатор кодека/Подсказка : MP3
Продолжительность : 21 м.
Вид битрейта : Постоянный
Битрейт : 128 Кбит/сек
Каналы : 2 канала
Частота : 44,1 КГц
Метод сжатия : С потерями
Размер потока : 20,0 Мбайт (4%)
Выравнивание : Соединение по промежуткам
Продолжительность промежутка : 26 мс. (0,63 видеокадр)

Общее
Полное имя : Z:\Мои релизы\мультики\SuperBook_2&2\1 сезон\SB 02 Каин и Авель.avi
Формат : AVI
Формат/Информация : Audio Video Interleave
Размер файла : 564 Мбайт
Продолжительность : 20 м.
Общий поток : 3897 Кбит/сек
Название фильма : VTS_02_1
Программа кодирования : Lavf52.16.0

Видео
Идентификатор : 0
Формат : MPEG-4 Visual
Профиль формата : Simple@L1
Параметр BVOP формата : Нет
Параметр QPel формата : Нет
Параметр GMC формата : Без точки перехода
Параметр матрицы формата : Default (H.263)
Идентификатор кодека : DIVX
Идентификатор кодека/Информация : Project Mayo
Идентификатор кодека/Подсказка : DivX 4
Продолжительность : 20 м.
Битрейт : 3757 Кбит/сек
Ширина : 704 пикселя
Высота : 576 пикселей
Соотношение сторон : 4:3
Частота кадров : 23,976 кадра/сек
Стандарт вещания : PAL
Цветовое пространство : YUV
Субдискретизация насыщенности : 4:2:0
Битовая глубина : 8 бит
Тип развёртки : Прогрессивная
Метод сжатия : С потерями
Бит/(Пиксели*Кадры) : 0.386
Размер потока : 543 Мбайт (96%)
Библиотека кодирования : Lavc51.57.2

Аудио
Идентификатор : 1
Формат : MPEG Audio
Версия формата : Version 1
Профиль формата : Layer 3
Режим : Joint stereo
Расширение режима : MS Stereo
Идентификатор кодека : 55
Идентификатор кодека/Подсказка : MP3
Продолжительность : 20 м.
Вид битрейта : Постоянный
Битрейт : 128 Кбит/сек
Каналы : 2 канала
Частота : 44,1 КГц
Метод сжатия : С потерями
Размер потока : 18,5 Мбайт (3%)
Выравнивание : Соединение по промежуткам
Продолжительность промежутка : 26 мс. (0,63 видеокадр)

Общее
Полное имя : Z:\Мои релизы\мультики\SuperBook_2&2\1 сезон\SB 03 Великий потоп.avi
Формат : AVI
Формат/Информация : Audio Video Interleave
Размер файла : 546 Мбайт
Продолжительность : 19 м.
Общий поток : 3967 Кбит/сек
Название фильма : VTS_03_1
Программа кодирования : Lavf52.16.0

Видео
Идентификатор : 0
Формат : MPEG-4 Visual
Профиль формата : Simple@L1
Параметр BVOP формата : Нет
Параметр QPel формата : Нет
Параметр GMC формата : Без точки перехода
Параметр матрицы формата : Default (H.263)
Идентификатор кодека : DIVX
Идентификатор кодека/Информация : Project Mayo
Идентификатор кодека/Подсказка : DivX 4
Продолжительность : 19 м.
Битрейт : 3827 Кбит/сек
Ширина : 704 пикселя
Высота : 576 пикселей
Соотношение сторон : 4:3
Частота кадров : 23,976 кадра/сек
Стандарт вещания : PAL
Цветовое пространство : YUV
Субдискретизация насыщенности : 4:2:0
Битовая глубина : 8 бит
Тип развёртки : Прогрессивная
Метод сжатия : С потерями
Бит/(Пиксели*Кадры) : 0.394
Размер потока : 527 Мбайт (96%)
Библиотека кодирования : Lavc51.57.2

Аудио
Идентификатор : 1
Формат : MPEG Audio
Версия формата : Version 1
Профиль формата : Layer 3
Режим : Joint stereo
Расширение режима : MS Stereo
Идентификатор кодека : 55
Идентификатор кодека/Подсказка : MP3
Продолжительность : 19 м.
Вид битрейта : Постоянный
Битрейт : 128 Кбит/сек
Каналы : 2 канала
Частота : 44,1 КГц
Метод сжатия : С потерями
Размер потока : 17,6 Мбайт (3%)
Выравнивание : Соединение по промежуткам
Продолжительность промежутка : 26 мс. (0,63 видеокадр)

Общее
Полное имя : Z:\Мои релизы\мультики\SuperBook_2&2\1 сезон\SB 04 Испытание.avi
Формат : AVI
Формат/Информация : Audio Video Interleave
Размер файла : 614 Мбайт
Продолжительность : 22 м.
Общий поток : 3789 Кбит/сек
Название фильма : VTS_04_1
Программа кодирования : Lavf52.16.0

Видео
Идентификатор : 0
Формат : MPEG-4 Visual
Профиль формата : Simple@L1
Параметр BVOP формата : Нет
Параметр QPel формата : Нет
Параметр GMC формата : Без точки перехода
Параметр матрицы формата : Default (H.263)
Идентификатор кодека : DIVX
Идентификатор кодека/Информация : Project Mayo
Идентификатор кодека/Подсказка : DivX 4
Продолжительность : 22 м.
Битрейт : 3649 Кбит/сек
Ширина : 704 пикселя
Высота : 576 пикселей
Соотношение сторон : 4:3
Частота кадров : 23,976 кадра/сек
Стандарт вещания : PAL
Цветовое пространство : YUV
Субдискретизация насыщенности : 4:2:0
Битовая глубина : 8 бит
Тип развёртки : Прогрессивная
Метод сжатия : С потерями
Бит/(Пиксели*Кадры) : 0.375
Размер потока : 591 Мбайт (96%)
Библиотека кодирования : Lavc51.57.2

Аудио
Идентификатор : 1
Формат : MPEG Audio
Версия формата : Version 1
Профиль формата : Layer 3
Режим : Joint stereo
Расширение режима : MS Stereo
Идентификатор кодека : 55
Идентификатор кодека/Подсказка : MP3
Продолжительность : 22 м.
Вид битрейта : Постоянный
Битрейт : 128 Кбит/сек
Каналы : 2 канала
Частота : 44,1 КГц
Метод сжатия : С потерями
Размер потока : 20,8 Мбайт (3%)
Выравнивание : Соединение по промежуткам
Продолжительность промежутка : 26 мс. (0,63 видеокадр)

Общее
Полное имя : Z:\Мои релизы\мультики\SuperBook_2&2\1 сезон\SB 05 Невеста Исаака.avi
Формат : AVI
Формат/Информация : Audio Video Interleave
Размер файла : 491 Мбайт
Продолжительность : 19 м.
Общий поток : 3551 Кбит/сек
Название фильма : VTS_05_1
Программа кодирования : Lavf52.16.0

Видео
Идентификатор : 0
Формат : MPEG-4 Visual
Профиль формата : Simple@L1
Параметр BVOP формата : Нет
Параметр QPel формата : Нет
Параметр GMC формата : Без точки перехода
Параметр матрицы формата : Default (H.263)
Идентификатор кодека : DIVX
Идентификатор кодека/Информация : Project Mayo
Идентификатор кодека/Подсказка : DivX 4
Продолжительность : 19 м.
Битрейт : 3411 Кбит/сек
Ширина : 704 пикселя
Высота : 576 пикселей
Соотношение сторон : 4:3
Частота кадров : 23,976 кадра/сек
Стандарт вещания : PAL
Цветовое пространство : YUV
Субдискретизация насыщенности : 4:2:0
Битовая глубина : 8 бит
Тип развёртки : Прогрессивная
Метод сжатия : С потерями
Бит/(Пиксели*Кадры) : 0.351
Размер потока : 472 Мбайт (96%)
Библиотека кодирования : Lavc51.57.2

Аудио
Идентификатор : 1
Формат : MPEG Audio
Версия формата : Version 1
Профиль формата : Layer 3
Режим : Joint stereo
Расширение режима : MS Stereo
Идентификатор кодека : 55
Идентификатор кодека/Подсказка : MP3
Продолжительность : 19 м.
Вид битрейта : Постоянный
Битрейт : 128 Кбит/сек
Каналы : 2 канала
Частота : 44,1 КГц
Метод сжатия : С потерями
Размер потока : 17,7 Мбайт (4%)
Выравнивание : Соединение по промежуткам
Продолжительность промежутка : 26 мс. (0,63 видеокадр)

Общее
Полное имя : Z:\Мои релизы\мультики\SuperBook_2&2\1 сезон\SB 06 Проданное первородство.avi
Формат : AVI
Формат/Информация : Audio Video Interleave
Размер файла : 426 Мбайт
Продолжительность : 20 м.
Общий поток : 2938 Кбит/сек
Название фильма : VTS_01_1
Программа кодирования : Lavf52.16.0

Видео
Идентификатор : 0
Формат : MPEG-4 Visual
Профиль формата : Simple@L1
Параметр BVOP формата : Нет
Параметр QPel формата : Нет
Параметр GMC формата : Без точки перехода
Параметр матрицы формата : Default (H.263)
Идентификатор кодека : DIVX
Идентификатор кодека/Информация : Project Mayo
Идентификатор кодека/Подсказка : DivX 4
Продолжительность : 20 м.
Битрейт : 2798 Кбит/сек
Ширина : 704 пикселя
Высота : 576 пикселей
Соотношение сторон : 4:3
Частота кадров : 23,976 кадра/сек
Стандарт вещания : PAL
Цветовое пространство : YUV
Субдискретизация насыщенности : 4:2:0
Битовая глубина : 8 бит
Тип развёртки : Прогрессивная
Метод сжатия : С потерями
Бит/(Пиксели*Кадры) : 0.288
Размер потока : 406 Мбайт (95%)
Библиотека кодирования : Lavc51.57.2

Аудио
Идентификатор : 1
Формат : MPEG Audio
Версия формата : Version 1
Профиль формата : Layer 3
Режим : Joint stereo
Идентификатор кодека : 55
Идентификатор кодека/Подсказка : MP3
Продолжительность : 20 м.
Вид битрейта : Постоянный
Битрейт : 128 Кбит/сек
Каналы : 2 канала
Частота : 44,1 КГц
Метод сжатия : С потерями
Размер потока : 18,6 Мбайт (4%)
Выравнивание : Соединение по промежуткам
Продолжительность промежутка : 26 мс. (0,63 видеокадр)

Общее
Полное имя : Z:\Мои релизы\мультики\SuperBook_2&2\1 сезон\SB 07 Вещие сны Иосифа.avi
Формат : AVI
Формат/Информация : Audio Video Interleave
Размер файла : 611 Мбайт
Продолжительность : 20 м.
Общий поток : 4188 Кбит/сек
Название фильма : VTS_02_1
Программа кодирования : Lavf52.16.0

Видео
Идентификатор : 0
Формат : MPEG-4 Visual
Профиль формата : Simple@L1
Параметр BVOP формата : Нет
Параметр QPel формата : Нет
Параметр GMC формата : Без точки перехода
Параметр матрицы формата : Default (H.263)
Идентификатор кодека : DIVX
Идентификатор кодека/Информация : Project Mayo
Идентификатор кодека/Подсказка : DivX 4
Продолжительность : 20 м.
Битрейт : 4048 Кбит/сек
Ширина : 704 пикселя
Высота : 576 пикселей
Соотношение сторон : 4:3
Частота кадров : 23,976 кадра/сек
Стандарт вещания : PAL
Цветовое пространство : YUV
Субдискретизация насыщенности : 4:2:0
Битовая глубина : 8 бит
Тип развёртки : Прогрессивная
Метод сжатия : С потерями
Бит/(Пиксели*Кадры) : 0.416
Размер потока : 590 Мбайт (97%)
Библиотека кодирования : Lavc51.57.2

Аудио
Идентификатор : 1
Формат : MPEG Audio
Версия формата : Version 1
Профиль формата : Layer 3
Режим : Joint stereo
Идентификатор кодека : 55
Идентификатор кодека/Подсказка : MP3
Продолжительность : 20 м.
Вид битрейта : Постоянный
Битрейт : 128 Кбит/сек
Каналы : 2 канала
Частота : 44,1 КГц
Метод сжатия : С потерями
Размер потока : 18,7 Мбайт (3%)
Выравнивание : Соединение по промежуткам
Продолжительность промежутка : 26 мс. (0,63 видеокадр)

Общее
Полное имя : Z:\Мои релизы\мультики\SuperBook_2&2\1 сезон\SB 08 Чудо жезл.avi
Формат : AVI
Формат/Информация : Audio Video Interleave
Размер файла : 632 Мбайт
Продолжительность : 20 м.
Общий поток : 4260 Кбит/сек
Название фильма : VTS_03_1
Программа кодирования : Lavf52.16.0

Видео
Идентификатор : 0
Формат : MPEG-4 Visual
Профиль формата : Simple@L1
Параметр BVOP формата : Нет
Параметр QPel формата : Нет
Параметр GMC формата : Без точки перехода
Параметр матрицы формата : Default (H.263)
Идентификатор кодека : DIVX
Идентификатор кодека/Информация : Project Mayo
Идентификатор кодека/Подсказка : DivX 4
Продолжительность : 20 м.
Битрейт : 4120 Кбит/сек
Ширина : 704 пикселя
Высота : 576 пикселей
Соотношение сторон : 4:3
Частота кадров : 23,976 кадра/сек
Стандарт вещания : PAL
Цветовое пространство : YUV
Субдискретизация насыщенности : 4:2:0
Битовая глубина : 8 бит
Тип развёртки : Прогрессивная
Метод сжатия : С потерями
Бит/(Пиксели*Кадры) : 0.424
Размер потока : 612 Мбайт (97%)
Библиотека кодирования : Lavc51.57.2

Аудио
Идентификатор : 1
Формат : MPEG Audio
Версия формата : Version 1
Профиль формата : Layer 3
Режим : Joint stereo
Идентификатор кодека : 55
Идентификатор кодека/Подсказка : MP3
Продолжительность : 20 м.
Вид битрейта : Постоянный
Битрейт : 128 Кбит/сек
Каналы : 2 канала
Частота : 44,1 КГц
Метод сжатия : С потерями
Размер потока : 19,0 Мбайт (3%)
Выравнивание : Соединение по промежуткам
Продолжительность промежутка : 26 мс. (0,63 видеокадр)

Общее
Полное имя : Z:\Мои релизы\мультики\SuperBook_2&2\1 сезон\SB 09 Иерихонские трубы.avi
Формат : AVI
Формат/Информация : Audio Video Interleave
Размер файла : 703 Мбайт
Продолжительность : 20 м.
Общий поток : 4809 Кбит/сек
Название фильма : VTS_04_1
Программа кодирования : Lavf52.16.0

Видео
Идентификатор : 0
Формат : MPEG-4 Visual
Профиль формата : Simple@L1
Параметр BVOP формата : Нет
Параметр QPel формата : Нет
Параметр GMC формата : Без точки перехода
Параметр матрицы формата : Default (H.263)
Идентификатор кодека : DIVX
Идентификатор кодека/Информация : Project Mayo
Идентификатор кодека/Подсказка : DivX 4
Продолжительность : 20 м.
Битрейт : 4669 Кбит/сек
Ширина : 704 пикселя
Высота : 576 пикселей
Соотношение сторон : 4:3
Частота кадров : 23,976 кадра/сек
Стандарт вещания : PAL
Цветовое пространство : YUV
Субдискретизация насыщенности : 4:2:0
Битовая глубина : 8 бит
Тип развёртки : Прогрессивная
Метод сжатия : С потерями
Бит/(Пиксели*Кадры) : 0.480
Размер потока : 683 Мбайт (97%)
Библиотека кодирования : Lavc51.57.2

Аудио
Идентификатор : 1
Формат : MPEG Audio
Версия формата : Version 1
Профиль формата : Layer 3
Режим : Joint stereo
Идентификатор кодека : 55
Идентификатор кодека/Подсказка : MP3
Продолжительность : 20 м.
Вид битрейта : Постоянный
Битрейт : 128 Кбит/сек
Каналы : 2 канала
Частота : 44,1 КГц
Метод сжатия : С потерями
Размер потока : 18,7 Мбайт (3%)
Выравнивание : Соединение по промежуткам
Продолжительность промежутка : 26 мс. (0,63 видеокадр)

Общее
Полное имя : Z:\Мои релизы\мультики\SuperBook_2&2\1 сезон\SB 10- Горящие светильники гедеона.avi
Формат : AVI
Формат/Информация : Audio Video Interleave
Размер файла : 131 Мбайт
Продолжительность : 19 м.
Общий поток : 958 Кбит/сек
Библиотека кодирования : VirtualDub build 13870/release

Видео
Идентификатор : 0
Формат : MPEG-4 Visual
Параметр BVOP формата : Да
Параметр QPel формата : Нет
Параметр GMC формата : Без точки перехода
Параметр матрицы формата : Default (H.263)
Идентификатор кодека : DX50
Идентификатор кодека/Подсказка : DivX 5
Продолжительность : 19 м.
Битрейт : 821 Кбит/сек
Ширина : 332 пикселя
Высота : 278 пикселей
Соотношение сторон : 1,194
Частота кадров : 25,000 кадров/сек
Цветовое пространство : YUV
Субдискретизация насыщенности : 4:2:0
Битовая глубина : 8 бит
Тип развёртки : Прогрессивная
Метод сжатия : С потерями
Бит/(Пиксели*Кадры) : 0.356
Размер потока : 113 Мбайт (86%)
Библиотека кодирования : DivX 5.0.2 (UTC 2002-05-16)

Аудио
Идентификатор : 1
Формат : MPEG Audio
Версия формата : Version 1
Профиль формата : Layer 3
Идентификатор кодека : 55
Идентификатор кодека/Подсказка : MP3
Продолжительность : 19 м.
Вид битрейта : Постоянный
Битрейт : 128 Кбит/сек
Каналы : 1 канал
Частота : 44,1 КГц
Метод сжатия : С потерями
Размер потока : 17,5 Мбайт (13%)
Выравнивание : Разделение по промежуткам
Продолжительность промежутка : 40 мс. (1,00 видеокадр)
Время предзагрузки промежутка : 468 мс.

Общее
Полное имя : Z:\Мои релизы\мультики\SuperBook_2&2\1 сезон\SB 11- Самсон.avi
Формат : AVI
Формат/Информация : Audio Video Interleave
Размер файла : 127 Мбайт
Продолжительность : 19 м.
Общий поток : 920 Кбит/сек
Библиотека кодирования : VirtualDub build 13870/release

Видео
Идентификатор : 0
Формат : MPEG-4 Visual
Параметр BVOP формата : Да
Параметр QPel формата : Нет
Параметр GMC формата : Без точки перехода
Параметр матрицы формата : Default (H.263)
Идентификатор кодека : DX50
Идентификатор кодека/Подсказка : DivX 5
Продолжительность : 19 м.
Битрейт : 782 Кбит/сек
Ширина : 332 пикселя
Высота : 278 пикселей
Соотношение сторон : 1,194
Частота кадров : 25,000 кадров/сек
Цветовое пространство : YUV
Субдискретизация насыщенности : 4:2:0
Битовая глубина : 8 бит
Тип развёртки : Прогрессивная
Метод сжатия : С потерями
Бит/(Пиксели*Кадры) : 0.339
Размер потока : 108 Мбайт (85%)
Библиотека кодирования : DivX 5.0.2 (UTC 2002-05-16)

Аудио
Идентификатор : 1
Формат : MPEG Audio
Версия формата : Version 1
Профиль формата : Layer 3
Идентификатор кодека : 55
Идентификатор кодека/Подсказка : MP3
Продолжительность : 19 м.
Вид битрейта : Постоянный
Битрейт : 128 Кбит/сек
Каналы : 1 канал
Частота : 44,1 КГц
Метод сжатия : С потерями
Размер потока : 17,7 Мбайт (14%)
Выравнивание : Разделение по промежуткам
Продолжительность промежутка : 40 мс. (1,00 видеокадр)
Время предзагрузки промежутка : 468 мс.

Общее
Полное имя : Z:\Мои релизы\мультики\SuperBook_2&2\1 сезон\SB 12- Первое рождество.avi
Формат : AVI
Формат/Информация : Audio Video Interleave
Размер файла : 130 Мбайт
Продолжительность : 19 м.
Общий поток : 944 Кбит/сек
Библиотека кодирования : VirtualDub build 13870/release

Видео
Идентификатор : 0
Формат : MPEG-4 Visual
Параметр BVOP формата : Да
Параметр QPel формата : Нет
Параметр GMC формата : Без точки перехода
Параметр матрицы формата : Default (H.263)
Идентификатор кодека : DX50
Идентификатор кодека/Подсказка : DivX 5
Продолжительность : 19 м.
Битрейт : 806 Кбит/сек
Ширина : 332 пикселя
Высота : 278 пикселей
Соотношение сторон : 1,194
Частота кадров : 25,000 кадров/сек
Цветовое пространство : YUV
Субдискретизация насыщенности : 4:2:0
Битовая глубина : 8 бит
Тип развёртки : Прогрессивная
Метод сжатия : С потерями
Бит/(Пиксели*Кадры) : 0.349
Размер потока : 111 Мбайт (85%)
Библиотека кодирования : DivX 5.0.2 (UTC 2002-05-16)

Аудио
Идентификатор : 1
Формат : MPEG Audio
Версия формата : Version 1
Профиль формата : Layer 3
Идентификатор кодека : 55
Идентификатор кодека/Подсказка : MP3
Продолжительность : 19 м.
Вид битрейта : Постоянный
Битрейт : 128 Кбит/сек
Каналы : 1 канал
Частота : 44,1 КГц
Метод сжатия : С потерями
Размер потока : 17,6 Мбайт (14%)
Выравнивание : Разделение по промежуткам
Продолжительность промежутка : 40 мс. (1,00 видеокадр)
Время предзагрузки промежутка : 469 мс.

Общее
Полное имя : Z:\Мои релизы\мультики\SuperBook_2&2\1 сезон\SB 13- Чудеса любви.avi
Формат : AVI
Формат/Информация : Audio Video Interleave
Размер файла : 123 Мбайт
Продолжительность : 17 м.
Общий поток : 961 Кбит/сек
Библиотека кодирования : VirtualDub build 13870/release

Видео
Идентификатор : 0
Формат : MPEG-4 Visual
Параметр BVOP формата : Да
Параметр QPel формата : Нет
Параметр GMC формата : Без точки перехода
Параметр матрицы формата : Default (H.263)
Идентификатор кодека : DX50
Идентификатор кодека/Подсказка : DivX 5
Продолжительность : 17 м.
Битрейт : 824 Кбит/сек
Ширина : 332 пикселя
Высота : 278 пикселей
Соотношение сторон : 1,194
Частота кадров : 25,000 кадров/сек
Цветовое пространство : YUV
Субдискретизация насыщенности : 4:2:0
Битовая глубина : 8 бит
Тип развёртки : Прогрессивная
Метод сжатия : С потерями
Бит/(Пиксели*Кадры) : 0.357
Размер потока : 106 Мбайт (86%)
Библиотека кодирования : DivX 5.0.2 (UTC 2002-05-16)

Аудио
Идентификатор : 1
Формат : MPEG Audio
Версия формата : Version 1
Профиль формата : Layer 3
Идентификатор кодека : 55
Идентификатор кодека/Подсказка : MP3
Продолжительность : 17 м.
Вид битрейта : Постоянный
Битрейт : 128 Кбит/сек
Каналы : 1 канал
Частота : 44,1 КГц
Метод сжатия : С потерями
Размер потока : 16,4 Мбайт (13%)
Выравнивание : Разделение по промежуткам
Продолжительность промежутка : 40 мс. (1,00 видеокадр)
Время предзагрузки промежутка : 468 мс.

Общее
Полное имя : Z:\Мои релизы\мультики\SuperBook_2&2\1 сезон\SB 14- Лучшие новости.avi
Формат : AVI
Формат/Информация : Audio Video Interleave
Размер файла : 128 Мбайт
Продолжительность : 18 м.
Общий поток : 950 Кбит/сек
Библиотека кодирования : VirtualDub build 13870/release

Видео
Идентификатор : 0
Формат : MPEG-4 Visual
Параметр BVOP формата : Да
Параметр QPel формата : Нет
Параметр GMC формата : Без точки перехода
Параметр матрицы формата : Default (H.263)
Идентификатор кодека : DX50
Идентификатор кодека/Подсказка : DivX 5
Продолжительность : 18 м.
Битрейт : 813 Кбит/сек
Ширина : 332 пикселя
Высота : 278 пикселей
Соотношение сторон : 1,194
Частота кадров : 25,000 кадров/сек
Цветовое пространство : YUV
Субдискретизация насыщенности : 4:2:0
Битовая глубина : 8 бит
Тип развёртки : Прогрессивная
Метод сжатия : С потерями
Бит/(Пиксели*Кадры) : 0.352
Размер потока : 110 Мбайт (86%)
Библиотека кодирования : DivX 5.0.2 (UTC 2002-05-16)

Аудио
Идентификатор : 1
Формат : MPEG Audio
Версия формата : Version 1
Профиль формата : Layer 3
Идентификатор кодека : 55
Идентификатор кодека/Подсказка : MP3
Продолжительность : 18 м.
Вид битрейта : Постоянный
Битрейт : 128 Кбит/сек
Каналы : 1 канал
Частота : 44,1 КГц
Метод сжатия : С потерями
Размер потока : 17,3 Мбайт (13%)
Выравнивание : Разделение по промежуткам
Продолжительность промежутка : 40 мс. (1,00 видеокадр)
Время предзагрузки промежутка : 468 мс.

Общее
Полное имя : Z:\Мои релизы\мультики\SuperBook_2&2\1 сезон\SB 15- Любовь к матери.avi
Формат : AVI
Формат/Информация : Audio Video Interleave
Размер файла : 104 Мбайт
Продолжительность : 18 м.
Общий поток : 797 Кбит/сек
Библиотека кодирования : VirtualDub build 13870/release

Видео
Идентификатор : 0
Формат : MPEG-4 Visual
Параметр BVOP формата : Да
Параметр QPel формата : Нет
Параметр GMC формата : Без точки перехода
Параметр матрицы формата : Default (H.263)
Идентификатор кодека : DX50
Идентификатор кодека/Подсказка : DivX 5
Продолжительность : 18 м.
Битрейт : 660 Кбит/сек
Ширина : 332 пикселя
Высота : 278 пикселей
Соотношение сторон : 1,194
Частота кадров : 25,000 кадров/сек
Цветовое пространство : YUV
Субдискретизация насыщенности : 4:2:0
Битовая глубина : 8 бит
Тип развёртки : Прогрессивная
Метод сжатия : С потерями
Бит/(Пиксели*Кадры) : 0.286
Размер потока : 85,9 Мбайт (83%)
Библиотека кодирования : DivX 5.0.2 (UTC 2002-05-16)

Аудио
Идентификатор : 1
Формат : MPEG Audio
Версия формата : Version 1
Профиль формата : Layer 3
Идентификатор кодека : 55
Идентификатор кодека/Подсказка : MP3
Продолжительность : 18 м.
Вид битрейта : Постоянный
Битрейт : 128 Кбит/сек
Каналы : 1 канал
Частота : 44,1 КГц
Метод сжатия : С потерями
Размер потока : 16,6 Мбайт (16%)
Выравнивание : Разделение по промежуткам
Продолжительность промежутка : 40 мс. (1,00 видеокадр)
Время предзагрузки промежутка : 468 мс.

Общее
Полное имя : Z:\Мои релизы\мультики\SuperBook_2&2\1 сезон\SB 16- Многостродальный Иов.avi
Формат : AVI
Формат/Информация : Audio Video Interleave
Размер файла : 100 Мбайт
Продолжительность : 19 м.
Общий поток : 713 Кбит/сек
Библиотека кодирования : VirtualDub build 13870/release

Видео
Идентификатор : 0
Формат : MPEG-4 Visual
Идентификатор кодека : DX50
Идентификатор кодека/Подсказка : DivX 5
Продолжительность : 19 м.
Source_Duration/String : 19 м.
Битрейт : 575 Кбит/сек
Ширина : 332 пикселя
Высота : 278 пикселей
Соотношение сторон : 1,194
Частота кадров : 25,000 кадров/сек
Цветовое пространство : YUV
Субдискретизация насыщенности : 4:2:0
Метод сжатия : С потерями
Бит/(Пиксели*Кадры) : 0.249
Размер потока : 80,4 Мбайт (80%)

Аудио
Идентификатор : 1
Формат : MPEG Audio
Идентификатор кодека : 55
Идентификатор кодека/Подсказка : MP3
Продолжительность : 19 м.
Source_Duration/String : 19 м.
Битрейт : 128 Кбит/сек
Каналы : 1 канал
Частота : 44,1 КГц
Метод сжатия : С потерями
Размер потока : 17,9 Мбайт (18%)
Выравнивание : Соединение по промежуткам
Продолжительность промежутка : 40 мс. (1,00 видеокадр)
Время предзагрузки промежутка : 468 мс.

Общее
Полное имя : Z:\Мои релизы\мультики\SuperBook_2&2\1 сезон\SB 17- Иона и кит.avi
Формат : AVI
Формат/Информация : Audio Video Interleave
Размер файла : 119 Мбайт
Продолжительность : 17 м.
Общий поток : 958 Кбит/сек
Библиотека кодирования : VirtualDub build 13870/release

Видео
Идентификатор : 0
Формат : MPEG-4 Visual
Параметр BVOP формата : Да
Параметр QPel формата : Нет
Параметр GMC формата : Без точки перехода
Параметр матрицы формата : Default (H.263)
Идентификатор кодека : DX50
Идентификатор кодека/Подсказка : DivX 5
Продолжительность : 17 м.
Битрейт : 820 Кбит/сек
Ширина : 332 пикселя
Высота : 278 пикселей
Соотношение сторон : 1,194
Частота кадров : 25,000 кадров/сек
Цветовое пространство : YUV
Субдискретизация насыщенности : 4:2:0
Битовая глубина : 8 бит
Тип развёртки : Прогрессивная
Метод сжатия : С потерями
Бит/(Пиксели*Кадры) : 0.356
Размер потока : 102 Мбайт (86%)
Библиотека кодирования : DivX 5.0.2 (UTC 2002-05-16)

Аудио
Идентификатор : 1
Формат : MPEG Audio
Версия формата : Version 1
Профиль формата : Layer 3
Идентификатор кодека : 55
Идентификатор кодека/Подсказка : MP3
Продолжительность : 17 м.
Вид битрейта : Постоянный
Битрейт : 128 Кбит/сек
Каналы : 1 канал
Частота : 44,1 КГц
Метод сжатия : С потерями
Размер потока : 15,8 Мбайт (13%)
Выравнивание : Разделение по промежуткам
Продолжительность промежутка : 40 мс. (1,00 видеокадр)
Время предзагрузки промежутка : 469 мс.

Общее
Полное имя : Z:\Мои релизы\мультики\SuperBook_2&2\1 сезон\SB 18- Первый царь.avi
Формат : AVI
Формат/Информация : Audio Video Interleave
Размер файла : 123 Мбайт
Продолжительность : 18 м.
Общий поток : 943 Кбит/сек
Библиотека кодирования : VirtualDub build 13870/release

Видео
Идентификатор : 0
Формат : MPEG-4 Visual
Параметр BVOP формата : Да
Параметр QPel формата : Нет
Параметр GMC формата : Без точки перехода
Параметр матрицы формата : Default (H.263)
Идентификатор кодека : DX50
Идентификатор кодека/Подсказка : DivX 5
Продолжительность : 18 м.
Битрейт : 806 Кбит/сек
Ширина : 332 пикселя
Высота : 278 пикселей
Соотношение сторон : 1,194
Частота кадров : 25,000 кадров/сек
Цветовое пространство : YUV
Субдискретизация насыщенности : 4:2:0
Битовая глубина : 8 бит
Тип развёртки : Прогрессивная
Метод сжатия : С потерями
Бит/(Пиксели*Кадры) : 0.349
Размер потока : 105 Мбайт (85%)
Библиотека кодирования : DivX 5.0.2 (UTC 2002-05-16)

Аудио
Идентификатор : 1
Формат : MPEG Audio
Версия формата : Version 1
Профиль формата : Layer 3
Идентификатор кодека : 55
Идентификатор кодека/Подсказка : MP3
Продолжительность : 18 м.
Вид битрейта : Постоянный
Битрейт : 128 Кбит/сек
Каналы : 1 канал
Частота : 44,1 КГц
Метод сжатия : С потерями
Размер потока : 16,7 Мбайт (14%)
Выравнивание : Разделение по промежуткам
Продолжительность промежутка : 40 мс. (1,00 видеокадр)
Время предзагрузки промежутка : 468 мс.

Общее
Полное имя : Z:\Мои релизы\мультики\SuperBook_2&2\1 сезон\SB 19- Давид и Галиаф.avi
Формат : AVI
Формат/Информация : Audio Video Interleave
Размер файла : 110 Мбайт
Продолжительность : 18 м.
Общий поток : 826 Кбит/сек
Библиотека кодирования : VirtualDub build 13870/release

Видео
Идентификатор : 0
Формат : MPEG-4 Visual
Параметр BVOP формата : Да
Параметр QPel формата : Нет
Параметр GMC формата : Без точки перехода
Параметр матрицы формата : Default (H.263)
Идентификатор кодека : DX50
Идентификатор кодека/Подсказка : DivX 5
Продолжительность : 18 м.
Битрейт : 688 Кбит/сек
Ширина : 332 пикселя
Высота : 278 пикселей
Соотношение сторон : 1,194
Частота кадров : 25,000 кадров/сек
Цветовое пространство : YUV
Субдискретизация насыщенности : 4:2:0
Битовая глубина : 8 бит
Тип развёртки : Прогрессивная
Метод сжатия : С потерями
Бит/(Пиксели*Кадры) : 0.298
Размер потока : 91,9 Мбайт (83%)
Библиотека кодирования : DivX 5.0.2 (UTC 2002-05-16)

Аудио
Идентификатор : 1
Формат : MPEG Audio
Версия формата : Version 1
Профиль формата : Layer 3
Идентификатор кодека : 55
Идентификатор кодека/Подсказка : MP3
Продолжительность : 18 м.
Вид битрейта : Постоянный
Битрейт : 128 Кбит/сек
Каналы : 1 канал
Частота : 44,1 КГц
Метод сжатия : С потерями
Размер потока : 17,0 Мбайт (15%)
Выравнивание : Разделение по промежуткам
Продолжительность промежутка : 40 мс. (1,00 видеокадр)
Время предзагрузки промежутка : 468 мс.

Общее
Полное имя : Z:\Мои релизы\мультики\SuperBook_2&2\1 сезон\SB 20- Мудрый Соломон.avi
Формат : AVI
Формат/Информация : Audio Video Interleave
Размер файла : 108 Мбайт
Продолжительность : 18 м.
Общий поток : 816 Кбит/сек
Библиотека кодирования : VirtualDub build 13870/release

Видео
Идентификатор : 0
Формат : MPEG-4 Visual
Параметр BVOP формата : Да
Параметр QPel формата : Нет
Параметр GMC формата : Без точки перехода
Параметр матрицы формата : Default (H.263)
Идентификатор кодека : DX50
Идентификатор кодека/Подсказка : DivX 5
Продолжительность : 18 м.
Битрейт : 678 Кбит/сек
Ширина : 332 пикселя
Высота : 278 пикселей
Соотношение сторон : 1,194
Частота кадров : 25,000 кадров/сек
Цветовое пространство : YUV
Субдискретизация насыщенности : 4:2:0
Битовая глубина : 8 бит
Тип развёртки : Прогрессивная
Метод сжатия : С потерями
Бит/(Пиксели*Кадры) : 0.294
Размер потока : 89,4 Мбайт (83%)
Библиотека кодирования : DivX 5.0.2 (UTC 2002-05-16)

Аудио
Идентификатор : 1
Формат : MPEG Audio
Версия формата : Version 1
Профиль формата : Layer 3
Идентификатор кодека : 55
Идентификатор кодека/Подсказка : MP3
Продолжительность : 18 м.
Вид битрейта : Постоянный
Битрейт : 128 Кбит/сек
Каналы : 1 канал
Частота : 44,1 КГц
Метод сжатия : С потерями
Размер потока : 16,8 Мбайт (16%)
Выравнивание : Разделение по промежуткам
Продолжительность промежутка : 40 мс. (1,00 видеокадр)
Время предзагрузки промежутка : 468 мс.

Общее
Полное имя : Z:\Мои релизы\мультики\SuperBook_2&2\1 сезон\SB 21- Истинный пророк.avi
Формат : AVI
Формат/Информация : Audio Video Interleave
Размер файла : 98,9 Мбайт
Продолжительность : 18 м.
Общий поток : 765 Кбит/сек
Библиотека кодирования : VirtualDub build 13870/release

Видео
Идентификатор : 0
Формат : MPEG-4 Visual
Параметр BVOP формата : Да
Параметр QPel формата : Нет
Параметр GMC формата : Без точки перехода
Параметр матрицы формата : Default (H.263)
Идентификатор кодека : DX50
Идентификатор кодека/Подсказка : DivX 5
Продолжительность : 18 м.
Битрейт : 627 Кбит/сек
Ширина : 332 пикселя
Высота : 278 пикселей
Соотношение сторон : 1,194
Частота кадров : 25,000 кадров/сек
Цветовое пространство : YUV
Субдискретизация насыщенности : 4:2:0
Битовая глубина : 8 бит
Тип развёртки : Прогрессивная
Метод сжатия : С потерями
Бит/(Пиксели*Кадры) : 0.272
Размер потока : 81,1 Мбайт (82%)
Библиотека кодирования : DivX 5.0.2 (UTC 2002-05-16)

Аудио
Идентификатор : 1
Формат : MPEG Audio
Версия формата : Version 1
Профиль формата : Layer 3
Идентификатор кодека : 55
Идентификатор кодека/Подсказка : MP3
Продолжительность : 18 м.
Вид битрейта : Постоянный
Битрейт : 128 Кбит/сек
Каналы : 1 канал
Частота : 44,1 КГц
Метод сжатия : С потерями
Размер потока : 16,5 Мбайт (17%)
Выравнивание : Разделение по промежуткам
Продолжительность промежутка : 40 мс. (1,00 видеокадр)
Время предзагрузки промежутка : 468 мс.

Общее
Полное имя : Z:\Мои релизы\мультики\SuperBook_2&2\1 сезон\SB 22- Огненная калесница.avi
Формат : AVI
Формат/Информация : Audio Video Interleave
Размер файла : 120 Мбайт
Продолжительность : 18 м.
Общий поток : 897 Кбит/сек
Библиотека кодирования : VirtualDub build 13870/release

Видео
Идентификатор : 0
Формат : MPEG-4 Visual
Идентификатор кодека : DX50
Идентификатор кодека/Подсказка : DivX 5
Продолжительность : 18 м.
Source_Duration/String : 18 м.
Битрейт : 760 Кбит/сек
Ширина : 332 пикселя
Высота : 278 пикселей
Соотношение сторон : 1,194
Частота кадров : 25,000 кадров/сек
Цветовое пространство : YUV
Субдискретизация насыщенности : 4:2:0
Метод сжатия : С потерями
Бит/(Пиксели*Кадры) : 0.330
Размер потока : 99,4 Мбайт (83%)

Аудио
Идентификатор : 1
Формат : MPEG Audio
Идентификатор кодека : 55
Идентификатор кодека/Подсказка : MP3
Продолжительность : 18 м.
Source_Duration/String : 18 м.
Битрейт : 128 Кбит/сек
Каналы : 1 канал
Частота : 44,1 КГц
Метод сжатия : С потерями
Размер потока : 16,7 Мбайт (14%)
Выравнивание : Соединение по промежуткам
Продолжительность промежутка : 40 мс. (1,00 видеокадр)
Время предзагрузки промежутка : 468 мс.

Общее
Полное имя : Z:\Мои релизы\мультики\SuperBook_2&2\1 сезон\SB 23- Львиный ров.avi
Формат : AVI
Формат/Информация : Audio Video Interleave
Размер файла : 106 Мбайт
Продолжительность : 18 м.
Общий поток : 808 Кбит/сек
Библиотека кодирования : VirtualDub build 13870/release

Видео
Идентификатор : 0
Формат : MPEG-4 Visual
Параметр BVOP формата : Да
Параметр QPel формата : Нет
Параметр GMC формата : Без точки перехода
Параметр матрицы формата : Default (H.263)
Идентификатор кодека : DX50
Идентификатор кодека/Подсказка : DivX 5
Продолжительность : 18 м.
Битрейт : 670 Кбит/сек
Ширина : 332 пикселя
Высота : 278 пикселей
Соотношение сторон : 1,194
Частота кадров : 25,000 кадров/сек
Цветовое пространство : YUV
Субдискретизация насыщенности : 4:2:0
Битовая глубина : 8 бит
Тип развёртки : Прогрессивная
Метод сжатия : С потерями
Бит/(Пиксели*Кадры) : 0.291
Размер потока : 87,9 Мбайт (83%)
Библиотека кодирования : DivX 5.0.2 (UTC 2002-05-16)

Аудио
Идентификатор : 1
Формат : MPEG Audio
Версия формата : Version 1
Профиль формата : Layer 3
Идентификатор кодека : 55
Идентификатор кодека/Подсказка : MP3
Продолжительность : 18 м.
Вид битрейта : Постоянный
Битрейт : 128 Кбит/сек
Каналы : 1 канал
Частота : 44,1 КГц
Метод сжатия : С потерями
Размер потока : 16,7 Мбайт (16%)
Выравнивание : Разделение по промежуткам
Продолжительность промежутка : 40 мс. (1,00 видеокадр)
Время предзагрузки промежутка : 469 мс.

Общее
Полное имя : Z:\Мои релизы\мультики\SuperBook_2&2\1 сезон\SB 24- Стены Иерусалима.avi
Формат : AVI
Формат/Информация : Audio Video Interleave
Размер файла : 119 Мбайт
Продолжительность : 19 м.
Общий поток : 865 Кбит/сек
Библиотека кодирования : VirtualDub build 13870/release

Видео
Идентификатор : 0
Формат : MPEG-4 Visual
Параметр BVOP формата : Да
Параметр QPel формата : Нет
Параметр GMC формата : Без точки перехода
Параметр матрицы формата : Default (H.263)
Идентификатор кодека : DX50
Идентификатор кодека/Подсказка : DivX 5
Продолжительность : 19 м.
Битрейт : 727 Кбит/сек
Ширина : 332 пикселя
Высота : 278 пикселей
Соотношение сторон : 1,194
Частота кадров : 25,000 кадров/сек
Цветовое пространство : YUV
Субдискретизация насыщенности : 4:2:0
Битовая глубина : 8 бит
Тип развёртки : Прогрессивная
Метод сжатия : С потерями
Бит/(Пиксели*Кадры) : 0.315
Размер потока : 99,7 Мбайт (84%)
Библиотека кодирования : DivX 5.0.2 (UTC 2002-05-16)

Аудио
Идентификатор : 1
Формат : MPEG Audio
Версия формата : Version 1
Профиль формата : Layer 3
Идентификатор кодека : 55
Идентификатор кодека/Подсказка : MP3
Продолжительность : 19 м.
Вид битрейта : Постоянный
Битрейт : 128 Кбит/сек
Каналы : 1 канал
Частота : 44,1 КГц
Метод сжатия : С потерями
Размер потока : 17,5 Мбайт (15%)
Выравнивание : Разделение по промежуткам
Продолжительность промежутка : 40 мс. (1,00 видеокадр)
Время предзагрузки промежутка : 468 мс.

Общее
Полное имя : Z:\Мои релизы\мультики\SuperBook_2&2\1 сезон\SB 25- Прекрасная царица.avi
Формат : AVI
Формат/Информация : Audio Video Interleave
Размер файла : 128 Мбайт
Продолжительность : 19 м.
Общий поток : 892 Кбит/сек
Библиотека кодирования : VirtualDub build 13870/release

Видео
Идентификатор : 0
Формат : MPEG-4 Visual
Параметр BVOP формата : Да
Параметр QPel формата : Нет
Параметр GMC формата : Без точки перехода
Параметр матрицы формата : Default (H.263)
Идентификатор кодека : DX50
Идентификатор кодека/Подсказка : DivX 5
Продолжительность : 19 м.
Битрейт : 755 Кбит/сек
Ширина : 332 пикселя
Высота : 278 пикселей
Соотношение сторон : 1,194
Частота кадров : 25,000 кадров/сек
Цветовое пространство : YUV
Субдискретизация насыщенности : 4:2:0
Битовая глубина : 8 бит
Тип развёртки : Прогрессивная
Метод сжатия : С потерями
Бит/(Пиксели*Кадры) : 0.327
Размер потока : 108 Мбайт (85%)
Библиотека кодирования : DivX 5.0.2 (UTC 2002-05-16)

Аудио
Идентификатор : 1
Формат : MPEG Audio
Версия формата : Version 1
Профиль формата : Layer 3
Идентификатор кодека : 55
Идентификатор кодека/Подсказка : MP3
Продолжительность : 19 м.
Вид битрейта : Постоянный
Битрейт : 128 Кбит/сек
Каналы : 1 канал
Частота : 44,1 КГц
Метод сжатия : С потерями
Размер потока : 18,3 Мбайт (14%)
Выравнивание : Разделение по промежуткам
Продолжительность промежутка : 40 мс. (1,00 видеокадр)
Время предзагрузки промежутка : 468 мс.

Общее
Полное имя : Z:\Мои релизы\мультики\SuperBook_2&2\1 сезон\SB 26- Удивительное обращение.avi
Формат : AVI
Формат/Информация : Audio Video Interleave
Размер файла : 144 Мбайт
Продолжительность : 19 м.
Общий поток : 1012 Кбит/сек
Библиотека кодирования : VirtualDub build 13870/release

Видео
Идентификатор : 0
Формат : MPEG-4 Visual
Параметр BVOP формата : Да
Параметр QPel формата : Нет
Параметр GMC формата : Без точки перехода
Параметр матрицы формата : Default (H.263)
Идентификатор кодека : DX50
Идентификатор кодека/Подсказка : DivX 5
Продолжительность : 19 м.
Битрейт : 874 Кбит/сек
Ширина : 332 пикселя
Высота : 278 пикселей
Соотношение сторон : 1,194
Частота кадров : 25,000 кадров/сек
Цветовое пространство : YUV
Субдискретизация насыщенности : 4:2:0
Битовая глубина : 8 бит
Тип развёртки : Прогрессивная
Метод сжатия : С потерями
Бит/(Пиксели*Кадры) : 0.379
Размер потока : 124 Мбайт (86%)
Библиотека кодирования : DivX 5.0.2 (UTC 2002-05-16)

Аудио
Идентификатор : 1
Формат : MPEG Audio
Версия формата : Version 1
Профиль формата : Layer 3
Идентификатор кодека : 55
Идентификатор кодека/Подсказка : MP3
Продолжительность : 19 м.
Вид битрейта : Постоянный
Битрейт : 128 Кбит/сек
Каналы : 1 канал
Частота : 44,1 КГц
Метод сжатия : С потерями
Размер потока : 18,2 Мбайт (13%)
Выравнивание : Разделение по промежуткам
Продолжительность промежутка : 40 мс. (1,00 видеокадр)
Время предзагрузки промежутка : 468 мс.
Общее
Полное имя : Z:\Мои релизы\мультики\SuperBook_2&2\2 сезон\01 - Где же о где же.avi
Формат : AVI
Формат/Информация : Audio Video Interleave
Размер файла : 152 Мбайт
Продолжительность : 22 м.
Общий поток : 940 Кбит/сек
Библиотека кодирования : VirtualDub build 13870/release

Видео
Идентификатор : 0
Формат : MPEG-4 Visual
Параметр BVOP формата : Да
Параметр QPel формата : Нет
Параметр GMC формата : Без точки перехода
Параметр матрицы формата : Default (H.263)
Идентификатор кодека : DX50
Идентификатор кодека/Подсказка : DivX 5
Продолжительность : 22 м.
Битрейт : 802 Кбит/сек
Ширина : 332 пикселя
Высота : 278 пикселей
Соотношение сторон : 1,194
Частота кадров : 25,000 кадров/сек
Цветовое пространство : YUV
Субдискретизация насыщенности : 4:2:0
Битовая глубина : 8 бит
Тип развёртки : Прогрессивная
Метод сжатия : С потерями
Бит/(Пиксели*Кадры) : 0.348
Размер потока : 130 Мбайт (85%)
Библиотека кодирования : DivX 5.0.2 (UTC 2002-05-16)

Аудио
Идентификатор : 1
Формат : MPEG Audio
Версия формата : Version 1
Профиль формата : Layer 3
Идентификатор кодека : 55
Идентификатор кодека/Подсказка : MP3
Продолжительность : 22 м.
Вид битрейта : Постоянный
Битрейт : 128 Кбит/сек
Каналы : 1 канал
Частота : 44,1 КГц
Метод сжатия : С потерями
Размер потока : 20,7 Мбайт (14%)
Выравнивание : Разделение по промежуткам
Продолжительность промежутка : 40 мс. (1,00 видеокадр)
Время предзагрузки промежутка : 469 мс.

Общее
Полное имя : Z:\Мои релизы\мультики\SuperBook_2&2\2 сезон\02 - Сосиски в тесте.avi
Формат : AVI
Формат/Информация : Audio Video Interleave
Размер файла : 130 Мбайт
Продолжительность : 21 м.
Общий поток : 859 Кбит/сек
Библиотека кодирования : VirtualDub build 13870/release

Видео
Идентификатор : 0
Формат : MPEG-4 Visual
Параметр BVOP формата : Да
Параметр QPel формата : Нет
Параметр GMC формата : Без точки перехода
Параметр матрицы формата : Default (H.263)
Идентификатор кодека : DX50
Идентификатор кодека/Подсказка : DivX 5
Продолжительность : 21 м.
Битрейт : 721 Кбит/сек
Ширина : 332 пикселя
Высота : 278 пикселей
Соотношение сторон : 1,194
Частота кадров : 25,000 кадров/сек
Цветовое пространство : YUV
Субдискретизация насыщенности : 4:2:0
Битовая глубина : 8 бит
Тип развёртки : Прогрессивная
Метод сжатия : С потерями
Бит/(Пиксели*Кадры) : 0.313
Размер потока : 109 Мбайт (84%)
Библиотека кодирования : DivX 5.0.2 (UTC 2002-05-16)

Аудио
Идентификатор : 1
Формат : MPEG Audio
Версия формата : Version 1
Профиль формата : Layer 3
Идентификатор кодека : 55
Идентификатор кодека/Подсказка : MP3
Продолжительность : 21 м.
Вид битрейта : Постоянный
Битрейт : 128 Кбит/сек
Каналы : 1 канал
Частота : 44,1 КГц
Метод сжатия : С потерями
Размер потока : 19,3 Мбайт (15%)
Выравнивание : Разделение по промежуткам
Продолжительность промежутка : 40 мс. (1,00 видеокадр)
Время предзагрузки промежутка : 468 мс.

Общее
Полное имя : Z:\Мои релизы\мультики\SuperBook_2&2\2 сезон\03 - Испытание верности.avi
Формат : AVI
Формат/Информация : Audio Video Interleave
Размер файла : 132 Мбайт
Продолжительность : 21 м.
Общий поток : 876 Кбит/сек
Библиотека кодирования : VirtualDub build 13870/release

Видео
Идентификатор : 0
Формат : MPEG-4 Visual
Параметр BVOP формата : Да
Параметр QPel формата : Нет
Параметр GMC формата : Без точки перехода
Параметр матрицы формата : Default (H.263)
Идентификатор кодека : DX50
Идентификатор кодека/Подсказка : DivX 5
Продолжительность : 21 м.
Битрейт : 739 Кбит/сек
Ширина : 332 пикселя
Высота : 278 пикселей
Соотношение сторон : 1,194
Частота кадров : 25,000 кадров/сек
Цветовое пространство : YUV
Субдискретизация насыщенности : 4:2:0
Битовая глубина : 8 бит
Тип развёртки : Прогрессивная
Метод сжатия : С потерями
Бит/(Пиксели*Кадры) : 0.320
Размер потока : 111 Мбайт (84%)
Библиотека кодирования : DivX 5.0.2 (UTC 2002-05-16)

Аудио
Идентификатор : 1
Формат : MPEG Audio
Версия формата : Version 1
Профиль формата : Layer 3
Идентификатор кодека : 55
Идентификатор кодека/Подсказка : MP3
Продолжительность : 21 м.
Вид битрейта : Постоянный
Битрейт : 128 Кбит/сек
Каналы : 1 канал
Частота : 44,1 КГц
Метод сжатия : С потерями
Размер потока : 19,3 Мбайт (15%)
Выравнивание : Разделение по промежуткам
Продолжительность промежутка : 40 мс. (1,00 видеокадр)
Время предзагрузки промежутка : 467 мс.

Общее
Полное имя : Z:\Мои релизы\мультики\SuperBook_2&2\2 сезон\04 - Любовь с первого взгляда.avi
Формат : AVI
Формат/Информация : Audio Video Interleave
Размер файла : 132 Мбайт
Продолжительность : 21 м.
Общий поток : 875 Кбит/сек
Библиотека кодирования : VirtualDub build 13870/release

Видео
Идентификатор : 0
Формат : MPEG-4 Visual
Параметр BVOP формата : Да
Параметр QPel формата : Нет
Параметр GMC формата : Без точки перехода
Параметр матрицы формата : Default (H.263)
Идентификатор кодека : DX50
Идентификатор кодека/Подсказка : DivX 5
Продолжительность : 21 м.
Битрейт : 737 Кбит/сек
Ширина : 332 пикселя
Высота : 278 пикселей
Соотношение сторон : 1,194
Частота кадров : 25,000 кадров/сек
Цветовое пространство : YUV
Субдискретизация насыщенности : 4:2:0
Битовая глубина : 8 бит
Тип развёртки : Прогрессивная
Метод сжатия : С потерями
Бит/(Пиксели*Кадры) : 0.320
Размер потока : 111 Мбайт (84%)
Библиотека кодирования : DivX 5.0.2 (UTC 2002-05-16)

Аудио
Идентификатор : 1
Формат : MPEG Audio
Версия формата : Version 1
Профиль формата : Layer 3
Идентификатор кодека : 55
Идентификатор кодека/Подсказка : MP3
Продолжительность : 21 м.
Вид битрейта : Постоянный
Битрейт : 128 Кбит/сек
Каналы : 1 канал
Частота : 44,1 КГц
Метод сжатия : С потерями
Размер потока : 19,3 Мбайт (15%)
Выравнивание : Разделение по промежуткам
Продолжительность промежутка : 40 мс. (1,00 видеокадр)
Время предзагрузки промежутка : 468 мс.

Общее
Полное имя : Z:\Мои релизы\мультики\SuperBook_2&2\2 сезон\05 - Папин любимчик.avi
Формат : AVI
Формат/Информация : Audio Video Interleave
Размер файла : 135 Мбайт
Продолжительность : 21 м.
Общий поток : 892 Кбит/сек
Библиотека кодирования : VirtualDub build 13870/release

Видео
Идентификатор : 0
Формат : MPEG-4 Visual
Параметр BVOP формата : Да
Параметр QPel формата : Нет
Параметр GMC формата : Без точки перехода
Параметр матрицы формата : Default (H.263)
Идентификатор кодека : DX50
Идентификатор кодека/Подсказка : DivX 5
Продолжительность : 21 м.
Битрейт : 754 Кбит/сек
Ширина : 332 пикселя
Высота : 278 пикселей
Соотношение сторон : 1,194
Частота кадров : 25,000 кадров/сек
Цветовое пространство : YUV
Субдискретизация насыщенности : 4:2:0
Битовая глубина : 8 бит
Тип развёртки : Прогрессивная
Метод сжатия : С потерями
Бит/(Пиксели*Кадры) : 0.327
Размер потока : 114 Мбайт (85%)
Библиотека кодирования : DivX 5.0.2 (UTC 2002-05-16)

Аудио
Идентификатор : 1
Формат : MPEG Audio
Версия формата : Version 1
Профиль формата : Layer 3
Идентификатор кодека : 55
Идентификатор кодека/Подсказка : MP3
Продолжительность : 21 м.
Вид битрейта : Постоянный
Битрейт : 128 Кбит/сек
Каналы : 1 канал
Частота : 44,1 КГц
Метод сжатия : С потерями
Размер потока : 19,3 Мбайт (14%)
Выравнивание : Разделение по промежуткам
Продолжительность промежутка : 40 мс. (1,00 видеокадр)
Время предзагрузки промежутка : 468 мс.

Общее
Полное имя : Z:\Мои релизы\мультики\SuperBook_2&2\2 сезон\06 - Все о снах.avi
Формат : AVI
Формат/Информация : Audio Video Interleave
Размер файла : 183 Мбайт
Продолжительность : 21 м.
Режим общего битрейта : Переменный
Общий поток : 1211 Кбит/сек
Библиотека кодирования : VirtualDub build 30009/release

Видео
Идентификатор : 0
Формат : MPEG-4 Visual
Параметр BVOP формата : 1
Параметр QPel формата : Нет
Параметр GMC формата : Без точки перехода
Параметр матрицы формата : Default (H.263)
Режим смешивания : Сжатый битовый поток
Идентификатор кодека : DX50
Идентификатор кодека/Подсказка : DivX 5
Продолжительность : 21 м.
Битрейт : 1076 Кбит/сек
Ширина : 720 пикселей
Высота : 528 пикселей
Соотношение сторон : 4:3
Частота кадров : 25,000 кадров/сек
Цветовое пространство : YUV
Субдискретизация насыщенности : 4:2:0
Битовая глубина : 8 бит
Тип развёртки : Прогрессивная
Метод сжатия : С потерями
Бит/(Пиксели*Кадры) : 0.113
Размер потока : 162 Мбайт (89%)
Библиотека кодирования : DivX 5.2.1 Alpha (UTC 2004-09-08)

Аудио
Идентификатор : 1
Формат : MPEG Audio
Версия формата : Version 1
Профиль формата : Layer 3
Режим : Joint stereo
Идентификатор кодека : 55
Идентификатор кодека/Подсказка : MP3
Продолжительность : 21 м.
Вид битрейта : Переменный
Битрейт : 128 Кбит/сек
Каналы : 2 канала
Частота : 44,1 КГц
Метод сжатия : С потерями
Размер потока : 18,5 Мбайт (10%)
Выравнивание : Соединение по промежуткам
Продолжительность промежутка : 26 мс. (0,65 видеокадр)
Время предзагрузки промежутка : 508 мс.

Общее
Полное имя : Z:\Мои релизы\мультики\SuperBook_2&2\2 сезон\07 - Заложник.avi
Формат : AVI
Формат/Информация : Audio Video Interleave
Размер файла : 121 Мбайт
Продолжительность : 21 м.
Общий поток : 800 Кбит/сек
Библиотека кодирования : VirtualDub build 13870/release

Видео
Идентификатор : 0
Формат : MPEG-4 Visual
Параметр BVOP формата : Да
Параметр QPel формата : Нет
Параметр GMC формата : Без точки перехода
Параметр матрицы формата : Default (H.263)
Идентификатор кодека : DX50
Идентификатор кодека/Подсказка : DivX 5
Продолжительность : 21 м.
Битрейт : 663 Кбит/сек
Ширина : 332 пикселя
Высота : 278 пикселей
Соотношение сторон : 1,194
Частота кадров : 25,000 кадров/сек
Цветовое пространство : YUV
Субдискретизация насыщенности : 4:2:0
Битовая глубина : 8 бит
Тип развёртки : Прогрессивная
Метод сжатия : С потерями
Бит/(Пиксели*Кадры) : 0.287
Размер потока : 100,0 Мбайт (83%)
Библиотека кодирования : DivX 5.0.2 (UTC 2002-05-16)

Аудио
Идентификатор : 1
Формат : MPEG Audio
Версия формата : Version 1
Профиль формата : Layer 3
Идентификатор кодека : 55
Идентификатор кодека/Подсказка : MP3
Продолжительность : 21 м.
Вид битрейта : Постоянный
Битрейт : 128 Кбит/сек
Каналы : 1 канал
Частота : 44,1 КГц
Метод сжатия : С потерями
Размер потока : 19,3 Мбайт (16%)
Выравнивание : Разделение по промежуткам
Продолжительность промежутка : 40 мс. (1,00 видеокадр)
Время предзагрузки промежутка : 467 мс.

Общее
Полное имя : Z:\Мои релизы\мультики\SuperBook_2&2\2 сезон\08 - Воссоединение семьи.avi
Формат : AVI
Формат/Информация : Audio Video Interleave
Размер файла : 134 Мбайт
Продолжительность : 21 м.
Общий поток : 890 Кбит/сек
Библиотека кодирования : VirtualDub build 13870/release

Видео
Идентификатор : 0
Формат : MPEG-4 Visual
Параметр BVOP формата : Да
Параметр QPel формата : Нет
Параметр GMC формата : Без точки перехода
Параметр матрицы формата : Default (H.263)
Идентификатор кодека : DX50
Идентификатор кодека/Подсказка : DivX 5
Продолжительность : 21 м.
Битрейт : 752 Кбит/сек
Ширина : 332 пикселя
Высота : 278 пикселей
Соотношение сторон : 1,194
Частота кадров : 25,000 кадров/сек
Цветовое пространство : YUV
Субдискретизация насыщенности : 4:2:0
Битовая глубина : 8 бит
Тип развёртки : Прогрессивная
Метод сжатия : С потерями
Бит/(Пиксели*Кадры) : 0.326
Размер потока : 114 Мбайт (85%)
Библиотека кодирования : DivX 5.0.2 (UTC 2002-05-16)

Аудио
Идентификатор : 1
Формат : MPEG Audio
Версия формата : Version 1
Профиль формата : Layer 3
Идентификатор кодека : 55
Идентификатор кодека/Подсказка : MP3
Продолжительность : 21 м.
Вид битрейта : Постоянный
Битрейт : 128 Кбит/сек
Каналы : 1 канал
Частота : 44,1 КГц
Метод сжатия : С потерями
Размер потока : 19,3 Мбайт (14%)
Выравнивание : Разделение по промежуткам
Продолжительность промежутка : 40 мс. (1,00 видеокадр)
Время предзагрузки промежутка : 468 мс.

Общее
Полное имя : Z:\Мои релизы\мультики\SuperBook_2&2\2 сезон\09 - Дар небесный.avi
Формат : AVI
Формат/Информация : Audio Video Interleave
Размер файла : 135 Мбайт
Продолжительность : 21 м.
Общий поток : 894 Кбит/сек
Библиотека кодирования : VirtualDub build 13870/release

Видео
Идентификатор : 0
Формат : MPEG-4 Visual
Параметр BVOP формата : Да
Параметр QPel формата : Нет
Параметр GMC формата : Без точки перехода
Параметр матрицы формата : Default (H.263)
Идентификатор кодека : DX50
Идентификатор кодека/Подсказка : DivX 5
Продолжительность : 21 м.
Битрейт : 757 Кбит/сек
Ширина : 332 пикселя
Высота : 278 пикселей
Соотношение сторон : 1,194
Частота кадров : 25,000 кадров/сек
Цветовое пространство : YUV
Субдискретизация насыщенности : 4:2:0
Битовая глубина : 8 бит
Тип развёртки : Прогрессивная
Метод сжатия : С потерями
Бит/(Пиксели*Кадры) : 0.328
Размер потока : 114 Мбайт (85%)
Библиотека кодирования : DivX 5.0.2 (UTC 2002-05-16)

Аудио
Идентификатор : 1
Формат : MPEG Audio
Версия формата : Version 1
Профиль формата : Layer 3
Идентификатор кодека : 55
Идентификатор кодека/Подсказка : MP3
Продолжительность : 21 м.
Вид битрейта : Постоянный
Битрейт : 128 Кбит/сек
Каналы : 1 канал
Частота : 44,1 КГц
Метод сжатия : С потерями
Размер потока : 19,3 Мбайт (14%)
Выравнивание : Разделение по промежуткам
Продолжительность промежутка : 40 мс. (1,00 видеокадр)
Время предзагрузки промежутка : 468 мс.

Общее
Полное имя : Z:\Мои релизы\мультики\SuperBook_2&2\2 сезон\10 - Горящий куст.avi
Формат : AVI
Формат/Информация : Audio Video Interleave
Размер файла : 151 Мбайт
Продолжительность : 21 м.
Общий поток : 997 Кбит/сек
Библиотека кодирования : VirtualDub build 13870/release

Видео
Идентификатор : 0
Формат : MPEG-4 Visual
Параметр BVOP формата : Да
Параметр QPel формата : Нет
Параметр GMC формата : Без точки перехода
Параметр матрицы формата : Default (H.263)
Идентификатор кодека : DX50
Идентификатор кодека/Подсказка : DivX 5
Продолжительность : 21 м.
Битрейт : 859 Кбит/сек
Ширина : 332 пикселя
Высота : 278 пикселей
Соотношение сторон : 1,194
Частота кадров : 25,000 кадров/сек
Цветовое пространство : YUV
Субдискретизация насыщенности : 4:2:0
Битовая глубина : 8 бит
Тип развёртки : Прогрессивная
Метод сжатия : С потерями
Бит/(Пиксели*Кадры) : 0.372
Размер потока : 130 Мбайт (86%)
Библиотека кодирования : DivX 5.0.2 (UTC 2002-05-16)

Аудио
Идентификатор : 1
Формат : MPEG Audio
Версия формата : Version 1
Профиль формата : Layer 3
Идентификатор кодека : 55
Идентификатор кодека/Подсказка : MP3
Продолжительность : 21 м.
Вид битрейта : Постоянный
Битрейт : 128 Кбит/сек
Каналы : 1 канал
Частота : 44,1 КГц
Метод сжатия : С потерями
Размер потока : 19,3 Мбайт (13%)
Выравнивание : Разделение по промежуткам
Продолжительность промежутка : 40 мс. (1,00 видеокадр)
Время предзагрузки промежутка : 468 мс.

Общее
Полное имя : Z:\Мои релизы\мультики\SuperBook_2&2\2 сезон\11 - Хватит бедствий.avi
Формат : AVI
Формат/Информация : Audio Video Interleave
Размер файла : 147 Мбайт
Продолжительность : 21 м.
Общий поток : 974 Кбит/сек
Библиотека кодирования : VirtualDub build 13870/release

Видео
Идентификатор : 0
Формат : MPEG-4 Visual
Параметр BVOP формата : Да
Параметр QPel формата : Нет
Параметр GMC формата : Без точки перехода
Параметр матрицы формата : Default (H.263)
Идентификатор кодека : DX50
Идентификатор кодека/Подсказка : DivX 5
Продолжительность : 21 м.
Битрейт : 836 Кбит/сек
Ширина : 332 пикселя
Высота : 278 пикселей
Соотношение сторон : 1,194
Частота кадров : 25,000 кадров/сек
Цветовое пространство : YUV
Субдискретизация насыщенности : 4:2:0
Битовая глубина : 8 бит
Тип развёртки : Прогрессивная
Метод сжатия : С потерями
Бит/(Пиксели*Кадры) : 0.362
Размер потока : 127 Мбайт (86%)
Библиотека кодирования : DivX 5.0.2 (UTC 2002-05-16)

Аудио
Идентификатор : 1
Формат : MPEG Audio
Версия формата : Version 1
Профиль формата : Layer 3
Идентификатор кодека : 55
Идентификатор кодека/Подсказка : MP3
Продолжительность : 21 м.
Вид битрейта : Постоянный
Битрейт : 128 Кбит/сек
Каналы : 1 канал
Частота : 44,1 КГц
Метод сжатия : С потерями
Размер потока : 19,3 Мбайт (13%)
Выравнивание : Разделение по промежуткам
Продолжительность промежутка : 40 мс. (1,00 видеокадр)
Время предзагрузки промежутка : 468 мс.

Общее
Полное имя : Z:\Мои релизы\мультики\SuperBook_2&2\2 сезон\12 - Так вы хотите в Египет.avi
Формат : AVI
Формат/Информация : Audio Video Interleave
Размер файла : 150 Мбайт
Продолжительность : 21 м.
Общий поток : 995 Кбит/сек
Библиотека кодирования : VirtualDub build 13870/release

Видео
Идентификатор : 0
Формат : MPEG-4 Visual
Параметр BVOP формата : Да
Параметр QPel формата : Нет
Параметр GMC формата : Без точки перехода
Параметр матрицы формата : Default (H.263)
Идентификатор кодека : DX50
Идентификатор кодека/Подсказка : DivX 5
Продолжительность : 21 м.
Битрейт : 858 Кбит/сек
Ширина : 332 пикселя
Высота : 278 пикселей
Соотношение сторон : 1,194
Частота кадров : 25,000 кадров/сек
Цветовое пространство : YUV
Субдискретизация насыщенности : 4:2:0
Битовая глубина : 8 бит
Тип развёртки : Прогрессивная
Метод сжатия : С потерями
Бит/(Пиксели*Кадры) : 0.372
Размер потока : 130 Мбайт (86%)
Библиотека кодирования : DivX 5.0.2 (UTC 2002-05-16)

Аудио
Идентификатор : 1
Формат : MPEG Audio
Версия формата : Version 1
Профиль формата : Layer 3
Идентификатор кодека : 55
Идентификатор кодека/Подсказка : MP3
Продолжительность : 21 м.
Вид битрейта : Постоянный
Битрейт : 128 Кбит/сек
Каналы : 1 канал
Частота : 44,1 КГц
Метод сжатия : С потерями
Размер потока : 19,3 Мбайт (13%)
Выравнивание : Разделение по промежуткам
Продолжительность промежутка : 40 мс. (1,00 видеокадр)
Время предзагрузки промежутка : 468 мс.

Общее
Полное имя : Z:\Мои релизы\мультики\SuperBook_2&2\2 сезон\13 - Все в ядовитых змеях.avi
Формат : AVI
Формат/Информация : Audio Video Interleave
Размер файла : 145 Мбайт
Продолжительность : 21 м.
Общий поток : 962 Кбит/сек
Библиотека кодирования : VirtualDub build 13870/release

Видео
Идентификатор : 0
Формат : MPEG-4 Visual
Параметр BVOP формата : Да
Параметр QPel формата : Нет
Параметр GMC формата : Без точки перехода
Параметр матрицы формата : Default (H.263)
Идентификатор кодека : DX50
Идентификатор кодека/Подсказка : DivX 5
Продолжительность : 21 м.
Битрейт : 824 Кбит/сек
Ширина : 332 пикселя
Высота : 278 пикселей
Соотношение сторон : 1,194
Частота кадров : 25,000 кадров/сек
Цветовое пространство : YUV
Субдискретизация насыщенности : 4:2:0
Битовая глубина : 8 бит
Тип развёртки : Прогрессивная
Метод сжатия : С потерями
Бит/(Пиксели*Кадры) : 0.357
Размер потока : 125 Мбайт (86%)
Библиотека кодирования : DivX 5.0.2 (UTC 2002-05-16)

Аудио
Идентификатор : 1
Формат : MPEG Audio
Версия формата : Version 1
Профиль формата : Layer 3
Идентификатор кодека : 55
Идентификатор кодека/Подсказка : MP3
Продолжительность : 21 м.
Вид битрейта : Постоянный
Битрейт : 128 Кбит/сек
Каналы : 1 канал
Частота : 44,1 КГц
Метод сжатия : С потерями
Размер потока : 19,3 Мбайт (13%)
Выравнивание : Разделение по промежуткам
Продолжительность промежутка : 40 мс. (1,00 видеокадр)
Время предзагрузки промежутка : 468 мс.

Общее
Полное имя : Z:\Мои релизы\мультики\SuperBook_2&2\2 сезон\14 - Та за которую стоит сражаться.avi
Формат : AVI
Формат/Информация : Audio Video Interleave
Размер файла : 137 Мбайт
Продолжительность : 21 м.
Общий поток : 910 Кбит/сек
Библиотека кодирования : VirtualDub build 13870/release

Видео
Идентификатор : 0
Формат : MPEG-4 Visual
Параметр BVOP формата : Да
Параметр QPel формата : Нет
Параметр GMC формата : Без точки перехода
Параметр матрицы формата : Default (H.263)
Идентификатор кодека : DX50
Идентификатор кодека/Подсказка : DivX 5
Продолжительность : 21 м.
Битрейт : 773 Кбит/сек
Ширина : 332 пикселя
Высота : 278 пикселей
Соотношение сторон : 1,194
Частота кадров : 25,000 кадров/сек
Цветовое пространство : YUV
Субдискретизация насыщенности : 4:2:0
Битовая глубина : 8 бит
Тип развёртки : Прогрессивная
Метод сжатия : С потерями
Бит/(Пиксели*Кадры) : 0.335
Размер потока : 117 Мбайт (85%)
Библиотека кодирования : DivX 5.0.2 (UTC 2002-05-16)

Аудио
Идентификатор : 1
Формат : MPEG Audio
Версия формата : Version 1
Профиль формата : Layer 3
Идентификатор кодека : 55
Идентификатор кодека/Подсказка : MP3
Продолжительность : 21 м.
Вид битрейта : Постоянный
Битрейт : 128 Кбит/сек
Каналы : 1 канал
Частота : 44,1 КГц
Метод сжатия : С потерями
Размер потока : 19,3 Мбайт (14%)
Выравнивание : Разделение по промежуткам
Продолжительность промежутка : 40 мс. (1,00 видеокадр)
Время предзагрузки промежутка : 468 мс.

Общее
Полное имя : Z:\Мои релизы\мультики\SuperBook_2&2\2 сезон\15 - Крепкая левая рука.avi
Формат : AVI
Формат/Информация : Audio Video Interleave
Размер файла : 126 Мбайт
Продолжительность : 21 м.
Общий поток : 833 Кбит/сек
Библиотека кодирования : VirtualDub build 13870/release

Видео
Идентификатор : 0
Формат : MPEG-4 Visual
Параметр BVOP формата : Да
Параметр QPel формата : Нет
Параметр GMC формата : Без точки перехода
Параметр матрицы формата : Default (H.263)
Идентификатор кодека : DX50
Идентификатор кодека/Подсказка : DivX 5
Продолжительность : 21 м.
Битрейт : 695 Кбит/сек
Ширина : 332 пикселя
Высота : 278 пикселей
Соотношение сторон : 1,194
Частота кадров : 25,000 кадров/сек
Цветовое пространство : YUV
Субдискретизация насыщенности : 4:2:0
Битовая глубина : 8 бит
Тип развёртки : Прогрессивная
Метод сжатия : С потерями
Бит/(Пиксели*Кадры) : 0.301
Размер потока : 105 Мбайт (83%)
Библиотека кодирования : DivX 5.0.2 (UTC 2002-05-16)

Аудио
Идентификатор : 1
Формат : MPEG Audio
Версия формата : Version 1
Профиль формата : Layer 3
Идентификатор кодека : 55
Идентификатор кодека/Подсказка : MP3
Продолжительность : 21 м.
Вид битрейта : Постоянный
Битрейт : 128 Кбит/сек
Каналы : 1 канал
Частота : 44,1 КГц
Метод сжатия : С потерями
Размер потока : 19,3 Мбайт (15%)
Выравнивание : Разделение по промежуткам
Продолжительность промежутка : 40 мс. (1,00 видеокадр)
Время предзагрузки промежутка : 468 мс.

Общее
Полное имя : Z:\Мои релизы\мультики\SuperBook_2&2\2 сезон\16 - Увязли в грязи.avi
Формат : AVI
Формат/Информация : Audio Video Interleave
Размер файла : 135 Мбайт
Продолжительность : 21 м.
Общий поток : 894 Кбит/сек
Библиотека кодирования : VirtualDub build 13870/release

Видео
Идентификатор : 0
Формат : MPEG-4 Visual
Параметр BVOP формата : Да
Параметр QPel формата : Нет
Параметр GMC формата : Без точки перехода
Параметр матрицы формата : Default (H.263)
Идентификатор кодека : DX50
Идентификатор кодека/Подсказка : DivX 5
Продолжительность : 21 м.
Битрейт : 757 Кбит/сек
Ширина : 332 пикселя
Высота : 278 пикселей
Соотношение сторон : 1,194
Частота кадров : 25,000 кадров/сек
Цветовое пространство : YUV
Субдискретизация насыщенности : 4:2:0
Битовая глубина : 8 бит
Тип развёртки : Прогрессивная
Метод сжатия : С потерями
Бит/(Пиксели*Кадры) : 0.328
Размер потока : 114 Мбайт (85%)
Библиотека кодирования : DivX 5.0.2 (UTC 2002-05-16)

Аудио
Идентификатор : 1
Формат : MPEG Audio
Версия формата : Version 1
Профиль формата : Layer 3
Идентификатор кодека : 55
Идентификатор кодека/Подсказка : MP3
Продолжительность : 21 м.
Вид битрейта : Постоянный
Битрейт : 128 Кбит/сек
Каналы : 1 канал
Частота : 44,1 КГц
Метод сжатия : С потерями
Размер потока : 19,3 Мбайт (14%)
Выравнивание : Разделение по промежуткам
Продолжительность промежутка : 40 мс. (1,00 видеокадр)
Время предзагрузки промежутка : 468 мс.

Общее
Полное имя : Z:\Мои релизы\мультики\SuperBook_2&2\2 сезон\17 - Обещание.avi
Формат : AVI
Формат/Информация : Audio Video Interleave
Размер файла : 132 Мбайт
Продолжительность : 21 м.
Общий поток : 875 Кбит/сек
Библиотека кодирования : VirtualDub build 13870/release

Видео
Идентификатор : 0
Формат : MPEG-4 Visual
Параметр BVOP формата : Да
Параметр QPel формата : Нет
Параметр GMC формата : Без точки перехода
Параметр матрицы формата : Default (H.263)
Идентификатор кодека : DX50
Идентификатор кодека/Подсказка : DivX 5
Продолжительность : 21 м.
Битрейт : 737 Кбит/сек
Ширина : 332 пикселя
Высота : 278 пикселей
Соотношение сторон : 1,194
Частота кадров : 25,000 кадров/сек
Цветовое пространство : YUV
Субдискретизация насыщенности : 4:2:0
Битовая глубина : 8 бит
Тип развёртки : Прогрессивная
Метод сжатия : С потерями
Бит/(Пиксели*Кадры) : 0.320
Размер потока : 111 Мбайт (84%)
Библиотека кодирования : DivX 5.0.2 (UTC 2002-05-16)

Аудио
Идентификатор : 1
Формат : MPEG Audio
Версия формата : Version 1
Профиль формата : Layer 3
Идентификатор кодека : 55
Идентификатор кодека/Подсказка : MP3
Продолжительность : 21 м.
Вид битрейта : Постоянный
Битрейт : 128 Кбит/сек
Каналы : 1 канал
Частота : 44,1 КГц
Метод сжатия : С потерями
Размер потока : 19,3 Мбайт (15%)
Выравнивание : Разделение по промежуткам
Продолжительность промежутка : 40 мс. (1,00 видеокадр)
Время предзагрузки промежутка : 468 мс.

Общее
Полное имя : Z:\Мои релизы\мультики\SuperBook_2&2\2 сезон\18 - Заслуженный подарок.avi
Формат : AVI
Формат/Информация : Audio Video Interleave
Размер файла : 138 Мбайт
Продолжительность : 21 м.
Общий поток : 912 Кбит/сек
Библиотека кодирования : VirtualDub build 13870/release

Видео
Идентификатор : 0
Формат : MPEG-4 Visual
Параметр BVOP формата : Да
Параметр QPel формата : Нет
Параметр GMC формата : Без точки перехода
Параметр матрицы формата : Default (H.263)
Идентификатор кодека : DX50
Идентификатор кодека/Подсказка : DivX 5
Продолжительность : 21 м.
Битрейт : 774 Кбит/сек
Ширина : 332 пикселя
Высота : 278 пикселей
Соотношение сторон : 1,194
Частота кадров : 25,000 кадров/сек
Цветовое пространство : YUV
Субдискретизация насыщенности : 4:2:0
Битовая глубина : 8 бит
Тип развёртки : Прогрессивная
Метод сжатия : С потерями
Бит/(Пиксели*Кадры) : 0.336
Размер потока : 117 Мбайт (85%)
Библиотека кодирования : DivX 5.0.2 (UTC 2002-05-16)

Аудио
Идентификатор : 1
Формат : MPEG Audio
Версия формата : Version 1
Профиль формата : Layer 3
Идентификатор кодека : 55
Идентификатор кодека/Подсказка : MP3
Продолжительность : 21 м.
Вид битрейта : Постоянный
Битрейт : 128 Кбит/сек
Каналы : 1 канал
Частота : 44,1 КГц
Метод сжатия : С потерями
Размер потока : 19,3 Мбайт (14%)
Выравнивание : Разделение по промежуткам
Продолжительность промежутка : 40 мс. (1,00 видеокадр)
Время предзагрузки промежутка : 468 мс.

Общее
Полное имя : Z:\Мои релизы\мультики\SuperBook_2&2\2 сезон\19 - Чудесный подарок.avi
Формат : AVI
Формат/Информация : Audio Video Interleave
Размер файла : 141 Мбайт
Продолжительность : 21 м.
Общий поток : 932 Кбит/сек
Библиотека кодирования : VirtualDub build 13870/release

Видео
Идентификатор : 0
Формат : MPEG-4 Visual
Параметр BVOP формата : Да
Параметр QPel формата : Нет
Параметр GMC формата : Без точки перехода
Параметр матрицы формата : Default (H.263)
Идентификатор кодека : DX50
Идентификатор кодека/Подсказка : DivX 5
Продолжительность : 21 м.
Битрейт : 794 Кбит/сек
Ширина : 332 пикселя
Высота : 278 пикселей
Соотношение сторон : 1,194
Частота кадров : 25,000 кадров/сек
Цветовое пространство : YUV
Субдискретизация насыщенности : 4:2:0
Битовая глубина : 8 бит
Тип развёртки : Прогрессивная
Метод сжатия : С потерями
Бит/(Пиксели*Кадры) : 0.344
Размер потока : 120 Мбайт (85%)
Библиотека кодирования : DivX 5.0.2 (UTC 2002-05-16)

Аудио
Идентификатор : 1
Формат : MPEG Audio
Версия формата : Version 1
Профиль формата : Layer 3
Идентификатор кодека : 55
Идентификатор кодека/Подсказка : MP3
Продолжительность : 21 м.
Вид битрейта : Постоянный
Битрейт : 128 Кбит/сек
Каналы : 1 канал
Частота : 44,1 КГц
Метод сжатия : С потерями
Размер потока : 19,3 Мбайт (14%)
Выравнивание : Разделение по промежуткам
Продолжительность промежутка : 40 мс. (1,00 видеокадр)
Время предзагрузки промежутка : 468 мс.

Общее
Полное имя : Z:\Мои релизы\мультики\SuperBook_2&2\2 сезон\20 - Могущественный пастушок.avi
Формат : AVI
Формат/Информация : Audio Video Interleave
Размер файла : 151 Мбайт
Продолжительность : 21 м.
Общий поток : 1003 Кбит/сек
Библиотека кодирования : VirtualDub build 13870/release

Видео
Идентификатор : 0
Формат : MPEG-4 Visual
Параметр BVOP формата : Да
Параметр QPel формата : Нет
Параметр GMC формата : Без точки перехода
Параметр матрицы формата : Default (H.263)
Идентификатор кодека : DX50
Идентификатор кодека/Подсказка : DivX 5
Продолжительность : 21 м.
Битрейт : 866 Кбит/сек
Ширина : 332 пикселя
Высота : 278 пикселей
Соотношение сторон : 1,194
Частота кадров : 25,000 кадров/сек
Цветовое пространство : YUV
Субдискретизация насыщенности : 4:2:0
Битовая глубина : 8 бит
Тип развёртки : Прогрессивная
Метод сжатия : С потерями
Бит/(Пиксели*Кадры) : 0.375
Размер потока : 130 Мбайт (86%)
Библиотека кодирования : DivX 5.0.2 (UTC 2002-05-16)

Аудио
Идентификатор : 1
Формат : MPEG Audio
Версия формата : Version 1
Профиль формата : Layer 3
Идентификатор кодека : 55
Идентификатор кодека/Подсказка : MP3
Продолжительность : 21 м.
Вид битрейта : Постоянный
Битрейт : 128 Кбит/сек
Каналы : 1 канал
Частота : 44,1 КГц
Метод сжатия : С потерями
Размер потока : 19,2 Мбайт (13%)
Выравнивание : Разделение по промежуткам
Продолжительность промежутка : 40 мс. (1,00 видеокадр)
Время предзагрузки промежутка : 468 мс.

Общее
Полное имя : Z:\Мои релизы\мультики\SuperBook_2&2\2 сезон\21 - С высоты падать больнее.avi
Формат : AVI
Формат/Информация : Audio Video Interleave
Размер файла : 137 Мбайт
Продолжительность : 21 м.
Общий поток : 904 Кбит/сек
Библиотека кодирования : VirtualDub build 13870/release

Видео
Идентификатор : 0
Формат : MPEG-4 Visual
Параметр BVOP формата : Да
Параметр QPel формата : Нет
Параметр GMC формата : Без точки перехода
Параметр матрицы формата : Default (H.263)
Идентификатор кодека : DX50
Идентификатор кодека/Подсказка : DivX 5
Продолжительность : 21 м.
Битрейт : 767 Кбит/сек
Ширина : 332 пикселя
Высота : 278 пикселей
Соотношение сторон : 1,194
Частота кадров : 25,000 кадров/сек
Цветовое пространство : YUV
Субдискретизация насыщенности : 4:2:0
Битовая глубина : 8 бит
Тип развёртки : Прогрессивная
Метод сжатия : С потерями
Бит/(Пиксели*Кадры) : 0.332
Размер потока : 116 Мбайт (85%)
Библиотека кодирования : DivX 5.0.2 (UTC 2002-05-16)

Аудио
Идентификатор : 1
Формат : MPEG Audio
Версия формата : Version 1
Профиль формата : Layer 3
Идентификатор кодека : 55
Идентификатор кодека/Подсказка : MP3
Продолжительность : 21 м.
Вид битрейта : Постоянный
Битрейт : 128 Кбит/сек
Каналы : 1 канал
Частота : 44,1 КГц
Метод сжатия : С потерями
Размер потока : 19,3 Мбайт (14%)
Выравнивание : Разделение по промежуткам
Продолжительность промежутка : 40 мс. (1,00 видеокадр)
Время предзагрузки промежутка : 467 мс.

Общее
Полное имя : Z:\Мои релизы\мультики\SuperBook_2&2\2 сезон\22 - Верный и искренний друг.avi
Формат : AVI
Формат/Информация : Audio Video Interleave
Размер файла : 141 Мбайт
Продолжительность : 21 м.
Общий поток : 933 Кбит/сек
Библиотека кодирования : VirtualDub build 13870/release

Видео
Идентификатор : 0
Формат : MPEG-4 Visual
Параметр BVOP формата : Да
Параметр QPel формата : Нет
Параметр GMC формата : Без точки перехода
Параметр матрицы формата : Default (H.263)
Идентификатор кодека : DX50
Идентификатор кодека/Подсказка : DivX 5
Продолжительность : 21 м.
Битрейт : 796 Кбит/сек
Ширина : 332 пикселя
Высота : 278 пикселей
Соотношение сторон : 1,194
Частота кадров : 25,000 кадров/сек
Цветовое пространство : YUV
Субдискретизация насыщенности : 4:2:0
Битовая глубина : 8 бит
Тип развёртки : Прогрессивная
Метод сжатия : С потерями
Бит/(Пиксели*Кадры) : 0.345
Размер потока : 120 Мбайт (85%)
Библиотека кодирования : DivX 5.0.2 (UTC 2002-05-16)

Аудио
Идентификатор : 1
Формат : MPEG Audio
Версия формата : Version 1
Профиль формата : Layer 3
Идентификатор кодека : 55
Идентификатор кодека/Подсказка : MP3
Продолжительность : 21 м.
Вид битрейта : Постоянный
Битрейт : 128 Кбит/сек
Каналы : 1 канал
Частота : 44,1 КГц
Метод сжатия : С потерями
Размер потока : 19,3 Мбайт (14%)
Выравнивание : Разделение по промежуткам
Продолжительность промежутка : 40 мс. (1,00 видеокадр)
Время предзагрузки промежутка : 468 мс.

Общее
Полное имя : Z:\Мои релизы\мультики\SuperBook_2&2\2 сезон\23 - Царь Давид.avi
Формат : AVI
Формат/Информация : Audio Video Interleave
Размер файла : 137 Мбайт
Продолжительность : 21 м.
Общий поток : 902 Кбит/сек
Библиотека кодирования : VirtualDub build 13870/release

Видео
Идентификатор : 0
Формат : MPEG-4 Visual
Параметр BVOP формата : Да
Параметр QPel формата : Нет
Параметр GMC формата : Без точки перехода
Параметр матрицы формата : Default (H.263)
Идентификатор кодека : DX50
Идентификатор кодека/Подсказка : DivX 5
Продолжительность : 21 м.
Битрейт : 765 Кбит/сек
Ширина : 332 пикселя
Высота : 278 пикселей
Соотношение сторон : 1,194
Частота кадров : 25,000 кадров/сек
Цветовое пространство : YUV
Субдискретизация насыщенности : 4:2:0
Битовая глубина : 8 бит
Тип развёртки : Прогрессивная
Метод сжатия : С потерями
Бит/(Пиксели*Кадры) : 0.331
Размер потока : 116 Мбайт (85%)
Библиотека кодирования : DivX 5.0.2 (UTC 2002-05-16)

Аудио
Идентификатор : 1
Формат : MPEG Audio
Версия формата : Version 1
Профиль формата : Layer 3
Идентификатор кодека : 55
Идентификатор кодека/Подсказка : MP3
Продолжительность : 21 м.
Вид битрейта : Постоянный
Битрейт : 128 Кбит/сек
Каналы : 1 канал
Частота : 44,1 КГц
Метод сжатия : С потерями
Размер потока : 19,3 Мбайт (14%)
Выравнивание : Разделение по промежуткам
Продолжительность промежутка : 40 мс. (1,00 видеокадр)
Время предзагрузки промежутка : 468 мс.

Общее
Полное имя : Z:\Мои релизы\мультики\SuperBook_2&2\2 сезон\24 - В зените славы.avi
Формат : AVI
Формат/Информация : Audio Video Interleave
Размер файла : 145 Мбайт
Продолжительность : 21 м.
Общий поток : 961 Кбит/сек
Библиотека кодирования : VirtualDub build 13870/release

Видео
Идентификатор : 0
Формат : MPEG-4 Visual
Параметр BVOP формата : Да
Параметр QPel формата : Нет
Параметр GMC формата : Без точки перехода
Параметр матрицы формата : Default (H.263)
Идентификатор кодека : DX50
Идентификатор кодека/Подсказка : DivX 5
Продолжительность : 21 м.
Битрейт : 824 Кбит/сек
Ширина : 332 пикселя
Высота : 278 пикселей
Соотношение сторон : 1,194
Частота кадров : 25,000 кадров/сек
Цветовое пространство : YUV
Субдискретизация насыщенности : 4:2:0
Битовая глубина : 8 бит
Тип развёртки : Прогрессивная
Метод сжатия : С потерями
Бит/(Пиксели*Кадры) : 0.357
Размер потока : 124 Мбайт (86%)
Библиотека кодирования : DivX 5.0.2 (UTC 2002-05-16)

Аудио
Идентификатор : 1
Формат : MPEG Audio
Версия формата : Version 1
Профиль формата : Layer 3
Идентификатор кодека : 55
Идентификатор кодека/Подсказка : MP3
Продолжительность : 21 м.
Вид битрейта : Постоянный
Битрейт : 128 Кбит/сек
Каналы : 1 канал
Частота : 44,1 КГц
Метод сжатия : С потерями
Размер потока : 19,3 Мбайт (13%)
Выравнивание : Разделение по промежуткам
Продолжительность промежутка : 40 мс. (1,00 видеокадр)
Время предзагрузки промежутка : 469 мс.

Общее
Полное имя : Z:\Мои релизы\мультики\SuperBook_2&2\2 сезон\25 - Злая царица.avi
Формат : AVI
Формат/Информация : Audio Video Interleave
Размер файла : 149 Мбайт
Продолжительность : 21 м.
Общий поток : 988 Кбит/сек
Библиотека кодирования : VirtualDub build 13870/release

Видео
Идентификатор : 0
Формат : MPEG-4 Visual
Параметр BVOP формата : Да
Параметр QPel формата : Нет
Параметр GMC формата : Без точки перехода
Параметр матрицы формата : Default (H.263)
Идентификатор кодека : DX50
Идентификатор кодека/Подсказка : DivX 5
Продолжительность : 21 м.
Битрейт : 850 Кбит/сек
Ширина : 332 пикселя
Высота : 278 пикселей
Соотношение сторон : 1,194
Частота кадров : 25,000 кадров/сек
Цветовое пространство : YUV
Субдискретизация насыщенности : 4:2:0
Битовая глубина : 8 бит
Тип развёртки : Прогрессивная
Метод сжатия : С потерями
Бит/(Пиксели*Кадры) : 0.369
Размер потока : 128 Мбайт (86%)
Библиотека кодирования : DivX 5.0.2 (UTC 2002-05-16)

Аудио
Идентификатор : 1
Формат : MPEG Audio
Версия формата : Version 1
Профиль формата : Layer 3
Идентификатор кодека : 55
Идентификатор кодека/Подсказка : MP3
Продолжительность : 21 м.
Вид битрейта : Постоянный
Битрейт : 128 Кбит/сек
Каналы : 1 канал
Частота : 44,1 КГц
Метод сжатия : С потерями
Размер потока : 19,3 Мбайт (13%)
Выравнивание : Разделение по промежуткам
Продолжительность промежутка : 40 мс. (1,00 видеокадр)
Время предзагрузки промежутка : 468 мс.

Общее
Полное имя : Z:\Мои релизы\мультики\SuperBook_2&2\2 сезон\26 - Вопрос времени.avi
Формат : AVI
Формат/Информация : Audio Video Interleave
Размер файла : 151 Мбайт
Продолжительность : 21 м.
Общий поток : 1000 Кбит/сек
Библиотека кодирования : VirtualDub build 13870/release

Видео
Идентификатор : 0
Формат : MPEG-4 Visual
Параметр BVOP формата : Да
Параметр QPel формата : Нет
Параметр GMC формата : Без точки перехода
Параметр матрицы формата : Default (H.263)
Идентификатор кодека : DX50
Идентификатор кодека/Подсказка : DivX 5
Продолжительность : 21 м.
Битрейт : 862 Кбит/сек
Ширина : 332 пикселя
Высота : 278 пикселей
Соотношение сторон : 1,194
Частота кадров : 25,000 кадров/сек
Цветовое пространство : YUV
Субдискретизация насыщенности : 4:2:0
Битовая глубина : 8 бит
Тип развёртки : Прогрессивная
Метод сжатия : С потерями
Бит/(Пиксели*Кадры) : 0.374
Размер потока : 130 Мбайт (86%)
Библиотека кодирования : DivX 5.0.2 (UTC 2002-05-16)

Аудио
Идентификатор : 1
Формат : MPEG Audio
Версия формата : Version 1
Профиль формата : Layer 3
Идентификатор кодека : 55
Идентификатор кодека/Подсказка : MP3
Продолжительность : 21 м.
Вид битрейта : Постоянный
Битрейт : 128 Кбит/сек
Каналы : 1 канал
Частота : 44,1 КГц
Метод сжатия : С потерями
Размер потока : 19,3 Мбайт (13%)
Выравнивание : Разделение по промежуткам
Продолжительность промежутка : 40 мс. (1,00 видеокадр)
Время предзагрузки промежутка : 467 мс.
Скриншоты:
Первый вариант видео


Второй вариант видео



Время раздачи: 24/7
[NNM-Club.ru]_SuperBook_2&2.torrent
 Торрент: Платиновая раздача  Зарегистрирован
 
Скачать


Примагнититься
 Зарегистрирован:   05 Мар 2012 05:12:54
 Размер:   10,5 GB  (
 Рейтинг:   4,4 (Голосов: 36)
 Поблагодарили:   114
 Проверка:   Оформление проверено модератором 05 Мар 2012 21:19:10
Как cкачать  ·  Как раздать  ·  Правильно оформить  ·  Поднять ратио!  
Kemchuk ®
Реставратор Клуба
Меценат и Модератор Музыки, КПК и Мобилок, Uploader 100+
 
Стаж: 8 лет 3 мес.
Сообщений: 5804
Ratio: 201,737
Поблагодарили: 21759
100%
Откуда: RUS 50
nnm-club.gif
непредвиденное случилось - оборвался основной провайдер прошу всех потерпеть сидерам огромный респект и человеческое спасибо

Добавлено спустя 52 секунды:

не могу раздать - траафик limited

Добавлено спустя 56 секунд:

Tark, 2502westmo, uglenit, DEDUSHKA66, W.K. - СПАСИБО!

Добавлено спустя 18 минут 39 секунд:

W.K. - отдельное спасибо за критику и помощь
badevlad
Стаж: 11 лет 10 мес.
Сообщений: 70
Ratio: 37,177
Поблагодарили: 1134
36.32%
Откуда: Из-за монитора
ukraine.gif
Замечательный мультфильм и качество вполне приличное. Жаль только, что большинство серий имеют разрешение 332 х 278, а не заявленное.

_________________
Когда Бог создал время, Он создал его достаточно / When God made time, He made a plenty of it.
(Ирландская пословица / Irish proverb)
ПочкаБилана
Стаж: 8 лет 3 мес.
Сообщений: 108
Ratio: 0,336
Поблагодарили: 5
100%
russia.gif
Даааа!!! Видимо Христос любил:
...
...?!!
Во втором сезоне ничего не понять, зачем такие названия для религиозных мультфильмов? Может я плохо знаю Ветхий и Новый Завет...?
ALIUS_MD
Стаж: 8 лет 3 мес.
Сообщений: 47
Ratio: 4,583
Раздал: 4,127 TB
Поблагодарили: 637
100%
moldova.gif
Отличный мульт. Я в детстве каждую серию с нетерпением ждал. Теперь пусть мои дети посмотрят.
TAR290910
Стаж: 9 лет
Сообщений: 508
Ratio: 0,793
4.14%
bahamas.gif
ALIUS_MD писал(а): Перейти к сообщению
Отличный мульт. Я в детстве каждую серию с нетерпением ждал. Теперь пусть мои дети посмотрят.

Наверное, вы ждали каждую серию по причине радости от любого редкого мульта по ТВ в то время
Показать сообщения:   
Начать новую тему   Ответить на тему    Торрент-трекер NNM-Club -> Аниме с озвучкой -> Аниме с озвучкой (SD) Часовой пояс: GMT + 3
Страница 1 из 1