Классический форум-трекер
canvas not supported
Нас вместе: 4 093 462

Первобытный страх / Primal Fear (1996) BDRip


 
 
RSS
Начать новую тему   Ответить на тему    Торрент-трекер NNM-Club -> Зарубежное кино -> Зарубежные Фильмы (HD*Rip/LQ, DVDRip, SATRip, VHSRip)
Автор Сообщение
Николай Анатольевич ®
   
Почетный релизер
 
Стаж: 10 лет 1 мес.
Сообщений: 46538
Ratio: 10,129
Раздал: 7,718 TB
Поблагодарили: 2607414
100%
estonia.gif
Первобытный страх / Primal Fear (1996) BDRip
«Рано или поздно двуличный человек забывает, кто он на самом деле.»

Русское название: Первобытный страх
Оригинальное название: Primal Fear
Год выпуска: 1996
Производство: США
Жанр: триллер, драма, криминал, детектив
Перевод: Профессиональный (многоголосый, закадровый)
Субтитры: отсутствуют

Режиссер: Грегори Хоблит / Gregory Hoblit
Актеры: Ричард Гир, Лора Линни, Эдвард Нортон, Джон Махони, Фрэнсис МакДорманд, Альфри Вудард, Терри О'Куинн, Стивен Бауэр, Джо Спано, Тони Плана

Описание фильма:
Страх, ложь и цинизм — основные темы судебной драмы. В убийстве чикагского архиепископа обвиняется молодой парень, который, несмотря на все улики, отрицает свою виновность и убеждает в этом своего адвоката.

Их отношения становятся все более напряженными и запутанными. В ходе судебного процесса сталкиваются бывшие любовники — прокурор Дженет Винейбл и адвокат Мартин Вейл.

Дата мировой премьеры: 3 апреля 1996
Дата выхода DVD релиза: 10 марта 2010, «Юниверсал Пикчерс Рус»
Продолжительность: 02:10:27
Качество видео: BDRip

Видеокодек: XviD
Битрейт видео: 1145 Кбит/сек
Размер кадра: 720x400
Аудио: Русский, 48 kHz, AC3 Dolby Digital, 3/2 (L,C,R,l,r) + LFE ch, 448 Кбит/сек
  • Первоначально роль Эдварда Нортона планировалось отдать Леонардо ДиКаприо.
    Триллер

    Успех этой картины был во многом неожиданным — будучи выпущенной в прокат США в начале апреля 1996 года, она вошла в десятку самых кассовых за первую половину киносезона, которая, как известно, не считается особо выигрышной в коммерческом отношении. Но и среди всех фильмов выпуска 1996 года «Первобытный страх» остался в числе тридцати лидеров проката. Конечно, можно объяснить его удачную коммерческую судьбу присутствием кинозвезды Ричарда Гира в роли адвоката Мартина Вэйла и наличием скандальных мотивов относительно преступления на сексуальной почве, совершённого полубезумным юношей Аароном Стэмплером, которого как раз и взялся защищать герой Гира.

    Но, между прочим, спустя девять месяцев после выхода ленты на экран иностранные журналисты, аккредитованные в Голливуде, вспомнили во время вручения премий «Золотой глобус» именно Эдварда Нортона, малоизвестного актёра, который дебютировал в кино, исполнив обманчивую роль парня, выдающего себя не за того, кем он является. Несчастный сирота, юноша с задержанным умственным развитием, невинный отрок-служка в церкви, который стал в числе прочих объектом похотливых притязаний уважаемого в городе епископа — весь набор политкорректных преимуществ просто требовал соучастия и сопереживания по отношению к этому персонажу. Пусть он и не афроамериканец, как, допустим, Родни Кинг и О. Дж. Симпсон, участники двух самых громких судебных процессов Америки в 90-е годы. Но вроде бы заслуживал безусловного снисхождения со стороны присяжных и зрителей — как юный изгой с психическими отклонениями.

    Однако определённый вызов «Первобытного страха», особенно по сравнению с целым рядом голливудских и независимых картин о «приговорённых, идущих на смерть», заключался как раз во внезапном повороте сюжета, что заставляло, в свою очередь, вспомнить о не лишённых мрачной иронии финалах таких признанных фильмов, как «Молчание ягнят», «Семь» и «Подозреваемые лица». Одно можно сказать: то ли следователи и адвокаты вдруг поглупели на экране, то ли преступники резко поумнели.

    1996
Общее
Полное имя : F:\Раздачи\Раздачи Видео\Первобытный страх (1996) BDRip.avi
Формат : AVI
Формат/Информация : Audio Video Interleave
Размер файла : 1,46 Гбайт
Продолжительность : 2 ч. 10 м.
Общий поток : 1602 Кбит/сек
Программа кодирования : VirtualDubMod 1.5.10.2 (build 2540/release)
Библиотека кодирования : VirtualDubMod build 2540/release

Видео
Идентификатор : 0
Формат : MPEG-4 Visual
Профиль формата : Advanced Simple@L5
Параметр BVOP формата : 3
Параметр QPel формата : Нет
Параметр GMC формата : Без точки перехода
Параметр матрицы формата : Default (MPEG)
Идентификатор кодека : XVID
Идентификатор кодека/Подсказка : XviD
Продолжительность : 2 ч. 10 м.
Битрейт : 1145 Кбит/сек
Ширина : 720 пикселей
Высота : 400 пикселей
Соотношение сторон : 16:9
Частота кадров : 23,976 кадра/сек
Цветовое пространство : YUV
Субдискретизация насыщенности : 4:2:0
Битовая глубина : 8 бит
Тип развёртки : Прогрессивная
Метод сжатия : С потерями
Бит/(Пиксели*Кадры) : 0.166
Размер потока : 1,04 Гбайт (71%)
Библиотека кодирования : XviD 1.2.1 (UTC 2008-12-04)

Аудио
Идентификатор : 1
Формат : AC-3
Формат/Информация : Audio Coding 3
Расширение режима : CM (complete main)
Идентификатор кодека : 2000
Продолжительность : 2 ч. 10 м.
Вид битрейта : Постоянный
Битрейт : 448 Кбит/сек
Каналы : 6 каналов
Расположение каналов : Front: L C R, Side: L R, LFE
Частота : 48,0 КГц
Битовая глубина : 16 бит
Метод сжатия : С потерями
Размер потока : 418 Мбайт (28%)
Выравнивание : Разделение по промежуткам
Продолжительность промежутка : 42 мс. (1,00 видеокадр)
Время предзагрузки промежутка : 500 мс.
Скриншоты:


Время раздачи: 9.00 - 23.00 (по мере возможности...)
[NNM-Club.ru]_Pervobyitnyiy strah (1996) BDRip.avi.torrent
 Торрент: Платиновая раздача  Зарегистрирован
 
Скачать


Примагнититься
 Зарегистрирован:   08 Мар 2012 15:40:03
 Размер:   1,46 GB  (
 Рейтинг:   4,8 (Голосов: 39)
 Поблагодарили:   198
 Проверка:   Оформление проверено модератором 08 Мар 2012 16:23:32
Как cкачать  ·  Как раздать  ·  Правильно оформить  ·  Поднять ратио!  
Nintendo228
Стаж: 6 лет 10 мес.
Сообщений: 20
Ratio: 6,704
Поблагодарили: 77
100%
Откуда: С пиратских островов
pirates.png
Шикарный фильм, один из любимых, советую всем
kutikl20
Стаж: 8 лет 4 мес.
Сообщений: 2
Ratio: 0,264
100%
Да, классный фильм! Даже несмотря на то, что фильм снят 20 лет назад! Рекомендую.
Показать сообщения:   
Начать новую тему   Ответить на тему    Торрент-трекер NNM-Club -> Зарубежное кино -> Зарубежные Фильмы (HD*Rip/LQ, DVDRip, SATRip, VHSRip) Часовой пояс: GMT + 3
Страница 1 из 1