Классический форум-трекер
canvas not supported
Нас вместе: 4 079 303

Евангелие от Матфея в произведениях великих мастеров иконописи и живописи (2005) DVDRip


 
 
RSS
Начать новую тему   Ответить на тему    Торрент-трекер NNM-Club -> Религии и культы -> Религиозное видео
Автор Сообщение
bhugvy ®
Стаж: 7 лет 11 мес.
Сообщений: 36
Ratio: 34,408
Поблагодарили: 648
100%
Откуда: СССР
ussr.gif
Евангелие от Матфея в произведениях великих мастеров иконописи и живописи (2005) DVDRip
Русское название: Евангелие от Матфея в произведениях великих мастеров иконописи и живописи

Год выпуска: 2005
Жанр: Документальный
Режиссер: Жасмин Мхитарян
Продолжительность: 02:26:32
Перевод: Отсутствует

Видеокодек: DivX5
Битрейт видео: ~999 Кбит\сек
Размер кадра: 720*544
Качество видео: DVDRip
Аудиокодек: MP3, 2 ch
Битрейт аудио: 160 Кбит\сек

Описание:
Это уникальное видеоиздание Евангелия от Матфея. Текст Евангелия озвучен профессиональным чтецом на фоне негромкого звучания русской православной церковной музыки.
Общее
Полное имя : I:\_razdachi\Evangelie\evangelie_ot_matfeya\Евангелие от Матфея в произведениях великих мастеров иконописи и живописи.avi
Формат : DivX
Формат/Информация : Hack of AVI
Размер файла : 1,20 Гбайт
Продолжительность : 2 ч. 26 м.
Общий поток : 1169 Кбит/сек

Видео
Идентификатор : 0
Формат : MPEG-4 Visual
Параметр BVOP формата : 1
Параметр QPel формата : Нет
Параметр GMC формата : Без точки перехода
Параметр матрицы формата : Default (H.263)
Режим смешивания : Сжатый битовый поток
Идентификатор кодека : DX50
Идентификатор кодека/Подсказка : DivX 5
Продолжительность : 2 ч. 26 м.
Битрейт : 999 Кбит/сек
Ширина : 720 пикселей
Высота : 544 пикселя
Соотношение сторон : 4:3
Частота кадров : 25,000 кадров/сек
Цветовое пространство : YUV
Субдискретизация насыщенности : 4:2:0
Битовая глубина : 8 бит
Тип развёртки : Прогрессивная
Метод сжатия : С потерями
Бит/(Пиксели*Кадры) : 0.102
Размер потока : 1,02 Гбайт (85%)
Заголовок : Main
Библиотека кодирования : DivX 6.8.5 (UTC 2009-08-20)

Аудио
Идентификатор : 1
Формат : MPEG Audio
Версия формата : Version 1
Профиль формата : Layer 3
Режим : Joint stereo
Расширение режима : MS Stereo
Идентификатор кодека : 55
Идентификатор кодека/Подсказка : MP3
Продолжительность : 2 ч. 26 м.
Вид битрейта : Постоянный
Битрейт : 160 Кбит/сек
Каналы : 2 канала
Частота : 48,0 КГц
Метод сжатия : С потерями
Задержка видео : 56 мс.
Размер потока : 168 Мбайт (14%)
Выравнивание : Разделение по промежуткам
Продолжительность промежутка : 40 мс. (1,00 видеокадр)
Время предзагрузки промежутка : 500 мс.
Заголовок : Audio
Скриншоты:


Время раздачи: 24\7
[NNM-Club.ru]_Evangelie ot Matfeya v proizvedeniyah velikih masterov ikonopisi i zhivopisi.avi.torrent
 Торрент: Платиновая раздача  Зарегистрирован
 
Скачать


 Зарегистрирован:   09 Мар 2012 10:44:09
 Размер:   1,2 GB  (
 Рейтинг:   4,6 (Голосов: 33)
 Поблагодарили:   100
 Проверка:   Оформление проверено модератором 13 Мар 2012 12:59:15
Как cкачать  ·  Как раздать  ·  Правильно оформить  ·  Поднять ратио!  
Показать сообщения:   
Начать новую тему   Ответить на тему    Торрент-трекер NNM-Club -> Религии и культы -> Религиозное видео Часовой пояс: GMT + 3
Страница 1 из 1