Классический форум-трекер
canvas not supported
Нас вместе: 4 078 949

Евангелие от Марка в произведениях великих мастеров иконописи и живописи(2005) DVDRip


 
 
RSS
Начать новую тему   Ответить на тему    Торрент-трекер NNM-Club -> Религии и культы -> Религиозное видео
Автор Сообщение
bhugvy ®
Стаж: 7 лет 10 мес.
Сообщений: 36
Ratio: 34,369
Поблагодарили: 648
100%
Откуда: СССР
ussr.gif
Евангелие от Марка в произведениях великих мастеров иконописи и живописи (2005) DVDRip
Русское название: Евангелие от Марка в произведениях великих мастеров иконописи и живописи

Год выпуска: 2005
Жанр: Документальный
Режиссер: Жасмин Мхитарян
Продолжительность: 01:30:50

Видеокодек: DivX5
Битрейт видео: ~998 Кбит\сек
Размер кадра: 720*544
Качество видео: DVDRip
Аудиокодек: MP3, 2ch
Битрейт аудио: 160 Кбит\сек

Описание:
Уникальное видеоиздание Евангелия от Марка. Текст Евангелия озвучен профессиональным чтецом на фоне негромкого звучания православной церковной музыки.
Общее
Полное имя : I:\_razdachi\Evangelie\evangelie_ot_marka\Евангелие от Марка в произведениях великих мастеров иконописи и живописи.avi
Формат : DivX
Формат/Информация : Hack of AVI
Размер файла : 759 Мбайт
Продолжительность : 1 ч. 30 м.
Общий поток : 1168 Кбит/сек

Видео
Идентификатор : 0
Формат : MPEG-4 Visual
Параметр BVOP формата : 1
Параметр QPel формата : Нет
Параметр GMC формата : Без точки перехода
Параметр матрицы формата : Default (H.263)
Режим смешивания : Сжатый битовый поток
Идентификатор кодека : DX50
Идентификатор кодека/Подсказка : DivX 5
Продолжительность : 1 ч. 30 м.
Битрейт : 998 Кбит/сек
Ширина : 720 пикселей
Высота : 544 пикселя
Соотношение сторон : 4:3
Частота кадров : 25,000 кадров/сек
Цветовое пространство : YUV
Субдискретизация насыщенности : 4:2:0
Битовая глубина : 8 бит
Тип развёртки : Прогрессивная
Метод сжатия : С потерями
Бит/(Пиксели*Кадры) : 0.102
Размер потока : 648 Мбайт (85%)
Заголовок : Main
Библиотека кодирования : DivX 6.8.5 (UTC 2009-08-20)

Аудио
Идентификатор : 1
Формат : MPEG Audio
Версия формата : Version 1
Профиль формата : Layer 3
Режим : Joint stereo
Расширение режима : MS Stereo
Идентификатор кодека : 55
Идентификатор кодека/Подсказка : MP3
Продолжительность : 1 ч. 30 м.
Вид битрейта : Постоянный
Битрейт : 160 Кбит/сек
Каналы : 2 канала
Частота : 48,0 КГц
Метод сжатия : С потерями
Задержка видео : 96 мс.
Размер потока : 104 Мбайт (14%)
Выравнивание : Разделение по промежуткам
Продолжительность промежутка : 40 мс. (1,00 видеокадр)
Время предзагрузки промежутка : 500 мс.
Заголовок : Audio
Скриншоты:


Время раздачи: 24\7
[NNM-Club.ru]_Evangelie ot Marka v proizvedeniyah velikih masterov ikonopisi i zhivopisi.avi.torrent
 Торрент: Платиновая раздача  Зарегистрирован
 
Скачать


 Зарегистрирован:   09 Мар 2012 20:33:57
 Размер:   759 MB  (
 Рейтинг:   4,5 (Голосов: 31)
 Поблагодарили:   89
 Проверка:   Оформление проверено модератором 13 Мар 2012 13:00:03
Как cкачать  ·  Как раздать  ·  Правильно оформить  ·  Поднять ратио!  
Загрузка...
Показать сообщения:   
Начать новую тему   Ответить на тему    Торрент-трекер NNM-Club -> Религии и культы -> Религиозное видео Часовой пояс: GMT + 3
Страница 1 из 1