Классический форум-трекер
canvas not supported
Нас вместе: 4 079 026

Душевные песни, знакомые с детства / THE OLD [Part 1] (2007) SATRip


 
 
RSS
Начать новую тему   Ответить на тему    Торрент-трекер NNM-Club -> Театр и Музыкальное видео -> Музыкальные клипы
Автор Сообщение
kruglii ®
Стаж: 9 лет 9 мес.
Сообщений: 3196
Ratio: 5654,31
Раздал: 48,73 TB
Поблагодарили: 113467
100%
Откуда: Одесса-МАМА
ussr.gif
Душевные песни, знакомые с детства / THE OLD (2007) SATRip
Русское название: Душевные песни, знакомые с детства
Оригинальное название: THE OLD
Год выпуска: 2007
Жанр: Музыка

Описание фильма:
Эти песни и мелодии, знакомы большинству из нас с пеленок;- Paul Mauriat, Elvis Presley, Mireille Mathieu, Joe Dassin- и многие другие.
Уникальный архив видео-записей, 50-х, 60-х, 70-х годов.
Предлагаю Вам скачать этот архив, и вспомнить: детство, юность а старшему поколению- молодость.
1.Paul Mauriat — Love Is Blue & El Bimbo
2.Marie Laforet — Viens Viens
3. Aphrodite's Child — It's five o'clock
4..Johnny Hallyday — Noir C'est Noir
5.Elvis Presley – My Way
6.Rika Zarai – Casatcok
7. Louis Armstrong – What a Wonderful World
8. Jerry Lee Lewis — Great Balls Of Fire
9. The Righteous Brothers – Unchained Melody
10. Pop Tops — Mamy Blue
11. Neil Sedaka — Oh Carol
12.The Hollies — Sorry Suzanne
13.Tom Jones — Delilah
14. The Platters-Only You
15. Mireille Mathieu — Une Femme Amoureuse
16. Chubby Checker — Let's Twist Again
17 Salvatore Adamo — Tombe La Neige
18. James Last – Biscaya
19.Les Charlots — Merci Patron
20. Engelbert Humperdinck — Please Release Me
21. Marie Laforet — Manchester et Liverpool
22. Pierre Groscolas — Lady lay
23.Joe Dassin – Le chemin de papa
Продолжительность: 01:08:27

Видеокодек: DivX 4/5/6
Битрейт видео: ~2500 Кбит/сек
Размер кадра: 640x480
Качество видео: SATRip
Аудиокодек: AC3
Битрейт аудио: 256 Кбит/сек
Общее
Полное имя : D:\Клипы\THE OLD от SACHAHOME 1-2-3-4\The_Old_Part_1.SATRip.[nnmclub.to].avi
Формат : AVI
Формат/Информация : Audio Video Interleave
Размер файла : 1,32 Гбайт
Продолжительность : 1 ч. 8 м.
Общий поток : 2769 Кбит/сек
Программа кодирования : Nandub v2.01 Расширенная технология сжатия разработана Neiromaster'ом
Библиотека кодирования : Nandub 2.01 modified by Neiromaster

Видео
Идентификатор : 0
Формат : MPEG-4 Visual
Параметр BVOP формата : 1
Параметр QPel формата : Нет
Параметр GMC формата : Без точки перехода
Параметр матрицы формата : Default (H.263)
Режим смешивания : Сжатый битовый поток
Идентификатор кодека : DX50
Идентификатор кодека/Подсказка : DivX 5
Продолжительность : 1 ч. 8 м.
Битрейт : 2507 Кбит/сек
Ширина : 640 пикселей
Высота : 480 пикселей
Соотношение сторон : 4:3
Частота кадров : 29,970 кадров/сек
Цветовое пространство : YUV
Субдискретизация насыщенности : 4:2:0
Битовая глубина : 8 бит
Тип развёртки : Прогрессивная
Метод сжатия : С потерями
Бит/(Пиксели*Кадры) : 0.272
Размер потока : 1,20 Гбайт (91%)
Библиотека кодирования : DivX 5.2.1 Alpha (UTC 2004-09-08)

Аудио
Идентификатор : 1
Формат : AC-3
Формат/Информация : Audio Coding 3
Расширение режима : CM (complete main)
Идентификатор кодека : 2000
Продолжительность : 1 ч. 8 м.
Вид битрейта : Постоянный
Битрейт : 256 Кбит/сек
Каналы : 4 канала
Расположение каналов : Front: L C R, LFE
Частота : 48,0 КГц
Битовая глубина : 16 бит
Метод сжатия : С потерями
Размер потока : 125 Мбайт (9%)
Выравнивание : Разделение по промежуткам
Продолжительность промежутка : 200 мс. (5,99 видеокадров)
Время предзагрузки промежутка : 200 мс.
Скриншоты:



"Душевные песни, знакомые с детства / THE OLD" на NNM-Club.ru
Время раздачи: С 06:00 до 22:00
The_Old_Part_1.SATRip.[nnm-club.ru].avi.torrent
 Торрент: Платиновая раздача  Зарегистрирован
 
Скачать


Примагнититься
 Зарегистрирован:   13 Мар 2012 06:42:34
 Размер:   1,32 GB  (
 Рейтинг:   5 (Голосов: 33)
 Поблагодарили:   115
 Проверка:   Оформление проверено модератором 13 Мар 2012 16:41:12
Как cкачать  ·  Как раздать  ·  Правильно оформить  ·  Поднять ратио!  
Toger
Стаж: 10 лет 1 мес.
Сообщений: 42
Ratio: 6,123
Раздал: 4,312 TB
Поблагодарили: 265
65.87%
Откуда: Kiev
ukraine.gif
Вау!!
Удивить. удивили, забираю!!!
sanya_54
Стаж: 9 лет 5 мес.
Сообщений: 23
Ratio: 40,586
100%
russia.gif
Душевное спасибо за все четыре сборки.

Песни моей юности.

С поклоном.
Uvarov
Стаж: 10 лет
Сообщений: 310
Ratio: 52,052
100%
Откуда: Средняя Волга
ussr.gif
Не могу удержаться от похвалы, СУПЕР!!! Я так понял сборки делал Sachahome. Все что он делает, достойно внимания. Увидел Chubby Checker, подумал Петросян :смех: Раздающему :респект:
eddy112
Стаж: 4 мес. 4 дня
Сообщений: 2
71.43%
Благодарствую!!!
Показать сообщения:   
Начать новую тему   Ответить на тему    Торрент-трекер NNM-Club -> Театр и Музыкальное видео -> Музыкальные клипы Часовой пояс: GMT + 3
Страница 1 из 1