Классический форум-трекер
canvas not supported
Нас вместе: 4 095 172

Первобытный страх / Primal Fear (1996) [720p] BDRip


 
 
RSS
Начать новую тему   Ответить на тему    Торрент-трекер NNM-Club -> Зарубежное кино -> Зарубежные Фильмы (HD, UHD-LQ)
Автор Сообщение
Николай Анатольевич ®
   
Почетный релизер
 
Стаж: 10 лет 2 мес.
Сообщений: 46538
Ratio: 10,112
Раздал: 7,719 TB
Поблагодарили: 2608256
100%
estonia.gif
Первобытный страх / Primal Fear (1996) [720p] BDRip
«Рано или поздно двуличный человек забывает, кто он на самом деле.»

Производство: США
Жанр: триллер, драма, криминал, детектив
Перевод: Профессиональный (многоголосый, закадровый)
Субтитры: русские, английские

Режиссер: Грегори Хоблит / Gregory Hoblit
Актеры: Ричард Гир, Лора Линни, Эдвард Нортон, Джон Махони, Фрэнсис МакДорманд, Альфри Вудард, Терри О'Куинн, Стивен Бауэр, Джо Спано, Тони Плана

Описание:
Страх, ложь и цинизм — основные темы судебной драмы. В убийстве чикагского архиепископа обвиняется молодой парень, который, несмотря на все улики, отрицает свою виновность и убеждает в этом своего адвоката.

Их отношения становятся все более напряженными и запутанными. В ходе судебного процесса сталкиваются бывшие любовники — прокурор Дженет Винейбл и адвокат Мартин Вейл.

Дата мировой премьеры: 3 апреля 1996
Дата выхода DVD релиза: 10 марта 2010, «Юниверсал Пикчерс Рус»
Продолжительность: 02:10:27
Качество видео: BDRip

Видеокодек: MPEG4 AVC / H.264
Битрейт видео: 4154 Кбит/сек
Размер кадра: 1280x720
Аудио:
Аудио 1: Русский, AC3 5.1, 48 KHz, 6ch, 448 kbps / Профессиональный (многоголосый, закадровый)
Аудио 2: Английский, AC3 5.1, 48 KHz, 6ch, 640 kbps
  • Первоначально роль Эдварда Нортона планировалось отдать Леонардо ДиКаприо.
    Триллер

    Успех этой картины был во многом неожиданным — будучи выпущенной в прокат США в начале апреля 1996 года, она вошла в десятку самых кассовых за первую половину киносезона, которая, как известно, не считается особо выигрышной в коммерческом отношении. Но и среди всех фильмов выпуска 1996 года «Первобытный страх» остался в числе тридцати лидеров проката. Конечно, можно объяснить его удачную коммерческую судьбу присутствием кинозвезды Ричарда Гира в роли адвоката Мартина Вэйла и наличием скандальных мотивов относительно преступления на сексуальной почве, совершённого полубезумным юношей Аароном Стэмплером, которого как раз и взялся защищать герой Гира.

    Но, между прочим, спустя девять месяцев после выхода ленты на экран иностранные журналисты, аккредитованные в Голливуде, вспомнили во время вручения премий «Золотой глобус» именно Эдварда Нортона, малоизвестного актёра, который дебютировал в кино, исполнив обманчивую роль парня, выдающего себя не за того, кем он является. Несчастный сирота, юноша с задержанным умственным развитием, невинный отрок-служка в церкви, который стал в числе прочих объектом похотливых притязаний уважаемого в городе епископа — весь набор политкорректных преимуществ просто требовал соучастия и сопереживания по отношению к этому персонажу. Пусть он и не афроамериканец, как, допустим, Родни Кинг и О. Дж. Симпсон, участники двух самых громких судебных процессов Америки в 90-е годы. Но вроде бы заслуживал безусловного снисхождения со стороны присяжных и зрителей — как юный изгой с психическими отклонениями.

    Однако определённый вызов «Первобытного страха», особенно по сравнению с целым рядом голливудских и независимых картин о «приговорённых, идущих на смерть», заключался как раз во внезапном повороте сюжета, что заставляло, в свою очередь, вспомнить о не лишённых мрачной иронии финалах таких признанных фильмов, как «Молчание ягнят», «Семь» и «Подозреваемые лица». Одно можно сказать: то ли следователи и адвокаты вдруг поглупели на экране, то ли преступники резко поумнели.

    1996
Общее
Уникальный идентификатор : 194722697104097068187336706807116301713 (0x927E3A31AC80AE55AC70A4BD892B8591)
Полное имя : F:\Раздачи\Раздачи Видео\Первобытный страх (1996) [720p] BDRip.mkv
Формат : Matroska
Версия формата : Version 1
Размер файла : 4,78 Гбайт
Продолжительность : 2 ч. 10 м.
Общий поток : 5245 Кбит/сек
Дата кодирования : UTC 2009-03-04 08:52:06
Программа кодирования : mkvmerge v2.4.2 ('Oh My God') built on Jan 18 2009 17:30:28
Библиотека кодирования : libebml v0.7.7 + libmatroska v0.8.1

Видео
Идентификатор : 1
Формат : AVC
Формат/Информация : Advanced Video Codec
Профиль формата : High@L3.1
Параметр CABAC формата : Да
Параметр ReFrames формата : 5 кадров
Идентификатор кодека : V_MPEG4/ISO/AVC
Продолжительность : 2 ч. 10 м.
Битрейт : 4154 Кбит/сек
Ширина : 1280 пикселей
Высота : 720 пикселей
Соотношение сторон : 16:9
Частота кадров : 23,976 кадра/сек
Цветовое пространство : YUV
Субдискретизация насыщенности : 4:2:0
Битовая глубина : 8 бит
Тип развёртки : Прогрессивная
Бит/(Пиксели*Кадры) : 0.188
Размер потока : 3,69 Гбайт (77%)
Библиотека кодирования : x264 core 66 r1115 11863ac
Настройки программы : cabac=1 / ref=5 / deblock=1:0:0 / analyse=0x3:0x113 / me=umh / subme=7 / psy_rd=1.0:0.0 / mixed_ref=1 / me_range=16 / chroma_me=1 / trellis=1 / 8x8dct=1 / cqm=0 / deadzone=21,11 / chroma_qp_offset=-2 / threads=6 / nr=0 / decimate=1 / mbaff=0 / bframes=3 / b_pyramid=1 / b_adapt=1 / b_bias=0 / direct=1 / wpredb=1 / keyint=250 / keyint_min=25 / scenecut=40(pre) / rc=2pass / bitrate=4154 / ratetol=1.0 / qcomp=0.60 / qpmin=10 / qpmax=51 / qpstep=4 / cplxblur=20.0 / qblur=0.5 / ip_ratio=1.40 / pb_ratio=1.30 / aq=1:1.00
Язык : English

Аудио #1
Идентификатор : 2
Формат : AC-3
Формат/Информация : Audio Coding 3
Расширение режима : CM (complete main)
Идентификатор кодека : A_AC3
Продолжительность : 2 ч. 10 м.
Вид битрейта : Постоянный
Битрейт : 448 Кбит/сек
Каналы : 6 каналов
Расположение каналов : Front: L C R, Side: L R, LFE
Частота : 48,0 КГц
Битовая глубина : 16 бит
Метод сжатия : С потерями
Размер потока : 418 Мбайт (9%)
Заголовок : AC3 5.1 448 kbps
Язык : Russian

Аудио #2
Идентификатор : 3
Формат : AC-3
Формат/Информация : Audio Coding 3
Расширение режима : CM (complete main)
Идентификатор кодека : A_AC3
Продолжительность : 2 ч. 10 м.
Вид битрейта : Постоянный
Битрейт : 640 Кбит/сек
Каналы : 6 каналов
Расположение каналов : Front: L C R, Side: L R, LFE
Частота : 48,0 КГц
Битовая глубина : 16 бит
Метод сжатия : С потерями
Размер потока : 597 Мбайт (12%)
Заголовок : AC3 5.1 640 kbps
Язык : English

Текст #1
Идентификатор : 4
Формат : UTF-8
Идентификатор кодека : S_TEXT/UTF8
Идентификатор кодека/Информация : UTF-8 Plain Text
Язык : Russian

Текст #2
Идентификатор : 5
Формат : UTF-8
Идентификатор кодека : S_TEXT/UTF8
Идентификатор кодека/Информация : UTF-8 Plain Text
Язык : English
Скриншоты:

Время раздачи: 9.00 - 23.00 (по мере возможности...)
[NNM-Club.ru]_Pervobyitnyiy strah (1996) [720p] BDRip.mkv.torrent
 Торрент: Платиновая раздача  Зарегистрирован
 
Скачать


 Зарегистрирован:   14 Мар 2012 13:35:33
 Размер:   4,78 GB  (
 Рейтинг:   4,8 (Голосов: 30)
 Поблагодарили:   139
 Проверка:   Оформление проверено модератором 15 Мар 2012 00:03:20
Как cкачать  ·  Как раздать  ·  Правильно оформить  ·  Поднять ратио!  
dimans1000
Стаж: 9 лет 9 мес.
Сообщений: 83
Ratio: 2,982
Поблагодарили: 28
24.02%
Шикарный фильм, один из лучших что я видел в жизни.
Показать сообщения:   
Начать новую тему   Ответить на тему    Торрент-трекер NNM-Club -> Зарубежное кино -> Зарубежные Фильмы (HD, UHD-LQ) Часовой пояс: GMT + 3
Страница 1 из 1