Классический форум-трекер
canvas not supported
Нас вместе: 4 094 372

Перелом (2009) DVDRip


 
 
RSS
Начать новую тему   Эта тема закрыта, вы не можете писать ответы и редактировать сообщения.    Торрент-трекер NNM-Club -> Архив торрентов -> Архив Документалистики и TV
Автор Сообщение
МиSHа ®
Стаж: 9 лет
Сообщений: 1290
Ratio: 76,389
Поблагодарили: 43197
100%
russia.gif
Перелом (2009) DVDRip
Название: Перелом

Режиссер: С. Щербаков
Год выпуска: 2009
Жанр: Документальный

Описание:
Фильм знакомит с жизнью Православного Епархиального Реабилитационного Центра во имя св.пр. Серафима Саровского для наркозависимых.
Центр создан при Приходе как одно из средств профилактики употребления наркотических и психоактивных веществ среди молодежи. Православные реабилитационные общины добиваются удивительных успехов и помогают бывшим наркоманам стать другими людьми и вернуться в общество.

Продолжительность: 00:19:24

Видеокодек: Xvid
Битрейт видео: 2 498 Kbps
Размер кадра: 720/400, 16:9
Качество видео: DVDRip
Аудиокодек: MPEG Layer 3
Битрейт аудио: 177 Kbps, 48.0 KHz, 2ch
General
Complete name : D:\Perelom.avi
Format : AVI
Format/Info : Audio Video Interleave
File size : 373 MiB
Duration : 19mn 24s
Overall bit rate : 2 688 Kbps
Writing application : VirtualDubMod 1.5.4.1 (build 2178/release)
Writing library : VirtualDubMod build 2178/release

Video
ID : 0
Format : MPEG-4 Visual
Format profile : Advanced Simple@L5
Format settings, BVOP : No
Format settings, QPel : No
Format settings, GMC : No warppoints
Format settings, Matrix : Custom
Codec ID : XVID
Codec ID/Hint : XviD
Duration : 19mn 24s
Bit rate : 2 498 Kbps
Width : 720 pixels
Height : 400 pixels
Display aspect ratio : 16:9
Frame rate : 25.000 fps
Color space : YUV
Chroma subsampling : 4:2:0
Bit depth : 8 bits
Scan type : Progressive
Bits/(Pixel*Frame) : 0.347
Stream size : 347 MiB (93%)
Writing library : XviD 1.2.1 (UTC 2008-12-04)

Audio
ID : 1
Format : MPEG Audio
Format version : Version 1
Format profile : Layer 3
Mode : Joint stereo
Mode extension : MS Stereo
Codec ID : 55
Codec ID/Hint : MP3
Duration : 19mn 24s
Bit rate mode : Variable
Bit rate : 177 Kbps
Nominal bit rate : 192 Kbps
Channel(s) : 2 channels
Sampling rate : 48.0 KHz
Stream size : 24.6 MiB (7%)
Alignment : Aligned on interleaves
Interleave, duration : 24 ms (0.60 video frame)
Interleave, preload duration : 104 ms
Writing library : LAME3.98r
Encoding settings : -m j -V 4 -q 2 -lowpass 18.6 --abr 192
Скриншоты:


Время раздачи: с 10:00 до 20:00
Perelom_[nnm-club]_avi_.torrent
 Торрент: Золотая раздача  Зарегистрирован
 
Зарегистрируйтесь и скачайте торрент!
15 KB

Примагнититься
 Зарегистрирован:   18 Мар 2012 19:46:23
 Размер:   373 MB  (
 Рейтинг:    (Голосов: 3)
 Поблагодарили:   6
 Проверка:   Оформление проверено модератором 18 Мар 2012 19:47:07
Как cкачать  ·  Как раздать  ·  Правильно оформить  ·  Поднять ратио!  
Топик был перенесен из форума Религии и культы в форум Архив Документалистики и TV

Причина переноса: Нет сида более 30 дней
МиSHа
Показать сообщения:   
Начать новую тему   Эта тема закрыта, вы не можете писать ответы и редактировать сообщения.    Торрент-трекер NNM-Club -> Архив торрентов -> Архив Документалистики и TV Часовой пояс: GMT + 3
Страница 1 из 1