Классический форум-трекер
canvas not supported
Нас вместе: 4 079 130

Лион - Быть безупречным (2012) [H.264/720р] WEBRip


 
 
RSS
Начать новую тему   Ответить на тему    Торрент-трекер NNM-Club -> Архив торрентов -> Архив Музыкального Видео
Автор Сообщение
FedExe ®
Uploader 300+
Стаж: 9 лет 4 мес.
Сообщений: 9667
Ratio: 382,784
Поблагодарили: 926751
100%
Откуда: LoX - living off experien
Лион - Быть безупречным (2012)
Год выхода : 2012
Исполнитель : Лион
Название : Быть безупречным
Продолжительность : 00:03:20
Жанр : Hip-hop

Видеокодек: MPEG4 Video (AVC)
Битрейт видео: 2 398 Kbps
Размер кадра: 1280x720
Качество видео: WEBRip
Аудиокодек: AAC
Битрейт аудио: 149 Kbps 2 channels
Код:
General

Format                           : MPEG-4
Format profile                   : Base Media / Version 2
Codec ID                         : mp42
File size                        : 61.0 MiB
Duration                         : 3mn 20s
Overall bit rate                 : 2 550 Kbps
Encoded date                     : UTC 2012-03-15 07:13:40
Tagged date                      : UTC 2012-03-15 07:13:40
gsst                             : 0
gstd                             : 200805
gssd                             : BADC213E5HH1332006280668186
gshh                             : o-o.preferred.fra02s07.v5.lscache4.c.youtube.com

Video
ID                               : 1
Format                           : AVC
Format/Info                      : Advanced Video Codec
Format profile                   : High@L3.1
Format settings, CABAC           : Yes
Format settings, ReFrames        : 1 frame
Format settings, GOP             : M=1, N=33
Codec ID                         : avc1
Codec ID/Info                    : Advanced Video Coding
Duration                         : 3mn 20s
Bit rate mode                    : Variable
Bit rate                         : 2 398 Kbps
Maximum bit rate                 : 5 200 Kbps
Width                            : 1 280 pixels
Height                           : 720 pixels
Display aspect ratio             : 16:9
Frame rate mode                  : Constant
Frame rate                       : 25.000 fps
Color space                      : YUV
Chroma subsampling               : 4:2:0
Bit depth                        : 8 bits
Scan type                        : Progressive
Bits/(Pixel*Frame)               : 0.104
Stream size                      : 57.4 MiB (94%)
Tagged date                      : UTC 2012-03-15 07:13:40

Audio
ID                               : 2
Format                           : AAC
Format/Info                      : Advanced Audio Codec
Format profile                   : LC
Codec ID                         : 40
Duration                         : 3mn 20s
Bit rate mode                    : Variable
Bit rate                         : 149 Kbps
Maximum bit rate                 : 177 Kbps
Channel(s)                       : 2 channels
Channel positions                : Front: L R
Sampling rate                    : 44.1 KHz
Compression mode                 : Lossy
Stream size                      : 3.57 MiB (6%)
Title                            : IsoMedia File Produced by Google, 5-11-2011
Encoded date                     : UTC 2012-03-15 07:13:40
Tagged date                      : UTC 2012-03-15 07:13:40


Скриншоты:



Время раздачи 24/7


[NNM-Club.ru]_Lion-But+bezuprechnum_HD.mp4.torrent
 Торрент: Золотая раздача  Зарегистрирован
 
Зарегистрируйтесь и скачайте торрент!
19,3 KB

Примагнититься
 Зарегистрирован:   19 Мар 2012 17:48:35
 Размер:   61 MB  (
 Рейтинг:    (Голосов: 6)
 Поблагодарили:   10
 Проверка:   Оформление проверено модератором 19 Мар 2012 18:28:31
Как cкачать  ·  Как раздать  ·  Правильно оформить  ·  Поднять ратио!  

_________________

Ну и конечно, данный материал выложен исключительно для ознакомления. После просмотра Вы обязаны удалить все файлы, отформатировать жесткий диск, разбить его молотком, облить кислотой и сжечь остатки в микроволновке.
Топик был перенесен из форума Музыкальные клипы в форум Архив Музыкального Видео

Причина переноса: Раздающего не было более месяца.
Robert Ingil
Показать сообщения:   
Начать новую тему   Ответить на тему    Торрент-трекер NNM-Club -> Архив торрентов -> Архив Музыкального Видео Часовой пояс: GMT + 3
Страница 1 из 1