Классический форум-трекер
canvas not supported
Нас вместе: 4 079 012

Сибириада (1978) DVDRip (серии 1-4 из 4)


 
 
RSS
Начать новую тему   Ответить на тему    Торрент-трекер NNM-Club -> Классика сериалов и многосерийное кино до 90-х -> Отечественная классика сериалов и старое многосерийное кино до 90-х
Автор Сообщение
skiner174 ®
Стаж: 8 лет 4 мес.
Сообщений: 32
Ratio: 33,084
Поблагодарили: 1930
100%
russia.gif
Сибириада (1978) DVDRip (серии 1-4 из 4)
Производство: СССР, Мосфильм
Жанр: драма, мелодрама, военный, история

Режиссер: Андрей Кончаловский
Актеры: Владимир Самойлов, Наталья Андрейченко, Никита Михалков, Людмила Гурченко, Игорь Охлупин, Виталий Соломин, Сергей Шакуров, Павел Кадочников, Елена Коренева, Евгений Леонов-Гладышев, Константин Григорьев, Евгений Перов, Иван Дмитриев, Михаил Кононов, Евдокия Алексеева

Описание:
"Поэма в шести сказах" - так определили авторы жанр фильма, охватывающего период жизни страны от начала века до семидесятых годов.
В сибирской глухомани, среди тайги и болот, живут в небольшом селе Елань две семьи, издавна враждующие меж собой: «кулаки» Соломины и бедняки Устюжанины. И не ведают они до поры, что суждено им породниться, что вопреки всем ветрам истории судьба будет сталкивать их снова и снова, и в ненависти, и в любви; не ведают, какие кровавые, трагические события ждут их впереди.

Это не сокращенный, а полный вариант фильма.


Возраст: 12+ (зрителям, достигшим 12 лет)

Продолжительность: 4 х ~01:06:00 (1 h 6 min + 1 h 2 min + 1 h 12 min + 59 min)
Качество видео: DVDRip

Видео: Xvid, 608x456, ~1060 Kbps
Аудио: MP3, 128 Kbps
Формат                                   : AVI
Формат/Информация : Audio Video Interleave
Размер файла : 572 Мбайт
Продолжительность : 1 ч. 6 м.
Общий поток : 1195 Кбит/сек
Программа кодирования : VirtualDubModRus 1.5.10.2 (build 2542/release)
Библиотека кодирования : VirtualDubMod build 2542/release

Видео
Идентификатор : 0
Формат : MPEG-4 Visual
Профиль формата : Advanced Simple@L5
Параметр BVOP формата : 2
Параметр QPel формата : Нет
Параметр GMC формата : Без точки перехода
Параметр матрицы формата : Default (MPEG)
Режим смешивания : Сжатый битовый поток
Идентификатор кодека : XVID
Идентификатор кодека/Подсказка : XviD
Продолжительность : 1 ч. 6 м.
Битрейт : 1058 Кбит/сек
Ширина : 608 пикселей
Высота : 456 пикселей
Соотношение сторон : 4:3
Частота кадров : 23,976 кадра/сек
Цветовое пространство : YUV
Субдискретизация насыщенности : 4:2:0
Битовая глубина : 8 бит
Тип развёртки : Прогрессивная
Метод сжатия : С потерями
Бит/(Пиксели*Кадры) : 0.159
Размер потока : 506 Мбайт (89%)
Библиотека кодирования : XviD 1.2.1 (UTC 2008-12-04)

Аудио
Идентификатор : 1
Формат : MPEG Audio
Версия формата : Version 1
Профиль формата : Layer 3
Идентификатор кодека : 55
Идентификатор кодека/Подсказка : MP3
Продолжительность : 1 ч. 6 м.
Вид битрейта : Постоянный
Битрейт : 128 Кбит/сек
Каналы : 2 канала
Частота : 48,0 КГц
Метод сжатия : С потерями
Размер потока : 61,2 Мбайт (11%)
Выравнивание : Соединение по промежуткам
Продолжительность промежутка : 42 мс. (1,00 видеокадр)
Время предзагрузки промежутка : 504 мс.
Библиотека кодирования : LAME3.97
Настройки программы : -m s -V 4 -q 1 -b 128
Формат                                   : AVI
Формат/Информация : Audio Video Interleave
Размер файла : 536 Мбайт
Продолжительность : 1 ч. 2 м.
Общий поток : 1198 Кбит/сек
Программа кодирования : VirtualDubModRus 1.5.10.2 (build 2542/release)
Библиотека кодирования : VirtualDubMod build 2542/release

Видео
Идентификатор : 0
Формат : MPEG-4 Visual
Профиль формата : Advanced Simple@L5
Параметр BVOP формата : 2
Параметр QPel формата : Нет
Параметр GMC формата : Без точки перехода
Параметр матрицы формата : Default (MPEG)
Режим смешивания : Сжатый битовый поток
Идентификатор кодека : XVID
Идентификатор кодека/Подсказка : XviD
Продолжительность : 1 ч. 2 м.
Битрейт : 1061 Кбит/сек
Ширина : 608 пикселей
Высота : 456 пикселей
Соотношение сторон : 4:3
Частота кадров : 23,976 кадра/сек
Цветовое пространство : YUV
Субдискретизация насыщенности : 4:2:0
Битовая глубина : 8 бит
Тип развёртки : Прогрессивная
Метод сжатия : С потерями
Бит/(Пиксели*Кадры) : 0.160
Размер потока : 475 Мбайт (89%)
Библиотека кодирования : XviD 1.2.1 (UTC 2008-12-04)

Аудио
Идентификатор : 1
Формат : MPEG Audio
Версия формата : Version 1
Профиль формата : Layer 3
Идентификатор кодека : 55
Идентификатор кодека/Подсказка : MP3
Продолжительность : 1 ч. 2 м.
Вид битрейта : Постоянный
Битрейт : 128 Кбит/сек
Каналы : 2 канала
Частота : 48,0 КГц
Метод сжатия : С потерями
Размер потока : 57,3 Мбайт (11%)
Выравнивание : Соединение по промежуткам
Продолжительность промежутка : 42 мс. (1,00 видеокадр)
Время предзагрузки промежутка : 504 мс.
Библиотека кодирования : LAME3.97
Настройки программы : -m s -V 4 -q 1 -b 128
Формат                                   : AVI
Формат/Информация : Audio Video Interleave
Размер файла : 624 Мбайт
Продолжительность : 1 ч. 12 м.
Общий поток : 1199 Кбит/сек
Программа кодирования : VirtualDubModRus 1.5.10.2 (build 2542/release)
Библиотека кодирования : VirtualDubMod build 2542/release

Видео
Идентификатор : 0
Формат : MPEG-4 Visual
Профиль формата : Advanced Simple@L5
Параметр BVOP формата : 2
Параметр QPel формата : Нет
Параметр GMC формата : Без точки перехода
Параметр матрицы формата : Default (MPEG)
Режим смешивания : Сжатый битовый поток
Идентификатор кодека : XVID
Идентификатор кодека/Подсказка : XviD
Продолжительность : 1 ч. 12 м.
Битрейт : 1061 Кбит/сек
Ширина : 608 пикселей
Высота : 456 пикселей
Соотношение сторон : 4:3
Частота кадров : 23,976 кадра/сек
Цветовое пространство : YUV
Субдискретизация насыщенности : 4:2:0
Битовая глубина : 8 бит
Тип развёртки : Прогрессивная
Метод сжатия : С потерями
Бит/(Пиксели*Кадры) : 0.160
Размер потока : 553 Мбайт (89%)
Библиотека кодирования : XviD 1.2.1 (UTC 2008-12-04)

Аудио
Идентификатор : 1
Формат : MPEG Audio
Версия формата : Version 1
Профиль формата : Layer 3
Идентификатор кодека : 55
Идентификатор кодека/Подсказка : MP3
Продолжительность : 1 ч. 12 м.
Вид битрейта : Постоянный
Битрейт : 128 Кбит/сек
Каналы : 2 канала
Частота : 48,0 КГц
Метод сжатия : С потерями
Размер потока : 66,7 Мбайт (11%)
Выравнивание : Соединение по промежуткам
Продолжительность промежутка : 42 мс. (1,00 видеокадр)
Время предзагрузки промежутка : 504 мс.
Библиотека кодирования : LAME3.97
Настройки программы : -m s -V 4 -q 1 -b 128
Формат                                   : AVI
Формат/Информация : Audio Video Interleave
Размер файла : 505 Мбайт
Продолжительность : 58 м.
Общий поток : 1199 Кбит/сек
Программа кодирования : VirtualDubModRus 1.5.10.2 (build 2542/release)
Библиотека кодирования : VirtualDubMod build 2542/release

Видео
Идентификатор : 0
Формат : MPEG-4 Visual
Профиль формата : Advanced Simple@L5
Параметр BVOP формата : 2
Параметр QPel формата : Нет
Параметр GMC формата : Без точки перехода
Параметр матрицы формата : Default (MPEG)
Режим смешивания : Сжатый битовый поток
Идентификатор кодека : XVID
Идентификатор кодека/Подсказка : XviD
Продолжительность : 58 м.
Битрейт : 1062 Кбит/сек
Ширина : 608 пикселей
Высота : 456 пикселей
Соотношение сторон : 4:3
Частота кадров : 23,976 кадра/сек
Цветовое пространство : YUV
Субдискретизация насыщенности : 4:2:0
Битовая глубина : 8 бит
Тип развёртки : Прогрессивная
Метод сжатия : С потерями
Бит/(Пиксели*Кадры) : 0.160
Размер потока : 447 Мбайт (89%)
Библиотека кодирования : XviD 1.2.1 (UTC 2008-12-04)

Аудио
Идентификатор : 1
Формат : MPEG Audio
Версия формата : Version 1
Профиль формата : Layer 3
Идентификатор кодека : 55
Идентификатор кодека/Подсказка : MP3
Продолжительность : 58 м.
Вид битрейта : Постоянный
Битрейт : 128 Кбит/сек
Каналы : 2 канала
Частота : 48,0 КГц
Метод сжатия : С потерями
Размер потока : 53,9 Мбайт (11%)
Выравнивание : Соединение по промежуткам
Продолжительность промежутка : 42 мс. (1,00 видеокадр)
Время предзагрузки промежутка : 504 мс.
Библиотека кодирования : LAME3.97
Настройки программы : -m s -V 4 -q 1 -b 128
Скриншоты:


Все одноименные релизы в Клубе

Время раздачи: с 10:00 до 24:00
[NNMClub.to]_Sibiriada_DVDRip_2.18GB.torrent
 Торрент: Платиновая раздача  Зарегистрирован
 
Скачать


Примагнититься
 Зарегистрирован:   09 Сен 2019 13:05:12
 Размер:   2,19 GB  (
 Рейтинг:   4,8 (Голосов: 84)
 Поблагодарили:   342
 Проверка:   Оформление проверено модератором 09 Сен 2019 13:05:47
Как cкачать  ·  Как раздать  ·  Правильно оформить  ·  Поднять ратио!  
us0r
Стаж: 11 лет 8 мес.
Сообщений: 108
Ratio: 7,157
Поблагодарили: 90
100%
witch.png
И молодой Миша Михалков...
sonyr
Стаж: 8 лет 7 мес.
Сообщений: 83
Ratio: 19,868
49.84%
огромное спасибо за фильм
boosh27

Online
Стаж: 8 лет 8 мес.
Сообщений: 188
Ratio: 2,261
100%
Откуда: Красноярск
russia.gif
очень жизненный фильм . Спасибо огромное ,я его искал...
буду на раздаче вечно...
blake75
Стаж: 9 лет 4 мес.
Сообщений: 220
Ratio: 38,735
Поблагодарили: 1785
100%
russia.gif
Для меня, самый лучший фильм Кончаловского!
necromant-76
 
Стаж: 9 лет 6 мес.
Сообщений: 854
Ratio: 96,074
Раздал: 41,51 TB
Поблагодарили: 451
100%
Откуда: Новосибирск
ussr.gif
Фильм - шедевр... Но только полная ли версия - это вопрос. От Крупного Плана версия не может быть полной по определению, там около часа (!) вырезано. Так что либо обложка не та, либо содержимое. :подмигивание:
Kalex
Администратор
Стаж: 12 лет 1 мес.
Сообщений: 32582
Ratio: 114,39
Поблагодарили: 13547
100%
nnm-club.gif
Торрент перерегистрирован в рамках акции Включаем DHT в древних раздачах
Теперь вам нужно его скачать и открыть в торрент-клиенте, указав в качестве места сохранения раздаваемый файл или папку.

_________________
NNMClub и IPv6/Teredo
... если преступников недостаточно, их надо создавать. Кому нужна нация, состоящая сплошь из законопослушных граждан? Какая от нее польза? А вот издайте законы, которые нельзя ни соблюдать, ни проводить в жизнь, ни объективно трактовать, и вы получите нацию нарушителей, а значит, сможете заработать на преступлениях... /Айн Рэнд, «Атлант расправил плечи»/
rogala51
Стаж: 5 лет 6 мес.
Сообщений: 911
Ratio: 4,034
100%
usa.gif
Благодарю. Хоть что то серьезное.

_________________
Очень люблю NNM. Не людей коверкающих язык.
Показать сообщения:   
Начать новую тему   Ответить на тему    Торрент-трекер NNM-Club -> Классика сериалов и многосерийное кино до 90-х -> Отечественная классика сериалов и старое многосерийное кино до 90-х Часовой пояс: GMT + 3
Страница 1 из 1