Классический форум-трекер
canvas not supported
Нас вместе: 4 095 218

Первобытный страх / Primal Fear (1996) DVD5


 
 
RSS
Начать новую тему   Ответить на тему    Торрент-трекер NNM-Club -> Архив торрентов -> Архив Видео
Автор Сообщение
rostik973 ®
Стаж: 10 лет 1 мес.
Сообщений: 800
Ratio: 31,191
Поблагодарили: 49297
100%
Откуда: Киев
ukraine.gif
Первобытный страх / Primal Fear (1996) DVD5
Русское название: Первобытный страх
Оригинальное название: Primal Fear
Год выпуска: 1996
Жанр: Триллер, Драма, Криминал

Описание фильма:
Страх, ложь и цинизм — основные темы судебной драмы. В убийстве чикагского архиепископа обвиняется молодой парень, который, несмотря на все улики, отрицает свою виновность и убеждает в этом своего адвоката.
Их отношения становятся все более напряженными и запутанными. В ходе судебного процесса сталкиваются бывшие любовники — прокурор Дженет Винейбл и адвокат Мартин Вейл.

Режиссер: Грегори Хоблит
Актеры: Ричард Гир,Лора Линни,Эдвард Нортон,Джон Махони,Фрэнсис МакДорманд,Элфри Вудард,Терри О`Куинн,Андре Брогер,Стивен Бауэр,Джо Спано

Продолжительность: 02:04:48
Перевод: Многоголосый закадровый
Язык субтитров: нет



Видеокодек: MPEG-2
Битрейт видео: ~4176kb/s
Размер кадра: PAL 16:9 (720x576) VBR
Качество видео: DVD5
Аудио 1: Английский (Dolby AC3, 6 ch) 448 Kbps- Оригинал
Аудио 2: Русский (Dolby AC3, 6 ch) 448 Kbps - Многоголосый закадровый
Title:
Size: 4.35 Gb ( 4 565 130 KBytes ) - DVD-5
Enabled regions: 1, 2, 3, 4, 5, 6, 7, 8

VTS_01 :
Play Length: 02:04:48
Video: PAL 16:9 (720x576) VBR, Auto Letterboxed
Audio:
Russian (Dolby AC3, 6 ch)
English (Dolby AC3, 6 ch)
Общее
Полное имя : C:\Primal Fear\VIDEO_TS\VTS_01_1.VOB
Формат : MPEG-PS
Размер файла : 1024 Мбайт
Продолжительность : 27 м.
Режим общего битрейта : Переменный
Общий поток : 5175 Кбит/сек

Видео
Идентификатор : 224 (0xE0)
Формат : MPEG Video
Версия формата : Version 2
Профиль формата : Main@Main
Параметр BVOP формата : Да
Параметр матрицы формата : Выборочная
Продолжительность : 27 м.
Вид битрейта : Переменный
Битрейт : 4176 Кбит/сек
Максимальный битрейт : 8786 Кбит/сек
Ширина : 720 пикселей
Высота : 576 пикселей
Соотношение сторон : 16:9
Частота кадров : 25,000 кадров/сек
Стандарт вещания : PAL
Цветовое пространство : YUV
Субдискретизация насыщенности : 4:2:0
Битовая глубина : 8 бит
Тип развёртки : Чересстрочная
Порядок развёртки : Верхнее поле первое
Метод сжатия : С потерями
Бит/(Пиксели*Кадры) : 0.403
Размер потока : 826 Мбайт (81%)

Аудио #1
Идентификатор : 189 (0xBD)-128 (0x80)
Формат : AC-3
Формат/Информация : Audio Coding 3
Расширение режима : CM (complete main)
Режим смешивания : DVD-Video
Продолжительность : 27 м.
Вид битрейта : Постоянный
Битрейт : 448 Кбит/сек
Каналы : 6 каналов
Расположение каналов : Front: L C R, Side: L R, LFE
Частота : 48,0 КГц
Битовая глубина : 16 бит
Метод сжатия : С потерями
Задержка видео : -288 мс.
Размер потока : 88,6 Мбайт (9%)

Аудио #2
Идентификатор : 189 (0xBD)-129 (0x81)
Формат : AC-3
Формат/Информация : Audio Coding 3
Расширение режима : CM (complete main)
Режим смешивания : DVD-Video
Продолжительность : 27 м.
Вид битрейта : Постоянный
Битрейт : 448 Кбит/сек
Каналы : 6 каналов
Расположение каналов : Front: L C R, Side: L R, LFE
Частота : 48,0 КГц
Битовая глубина : 16 бит
Метод сжатия : С потерями
Задержка видео : -288 мс.
Размер потока : 88,6 Мбайт (9%)

Меню
Дополнительных материалов:нет
Скриншоты:


Время раздачи: С 16:00 до 00:30
[NNM-Club.ru]_Primal Fear.torrent
 Торрент: Золотая раздача  Зарегистрирован
 
Зарегистрируйтесь и скачайте торрент!
22,4 KB

 Зарегистрирован:   22 Мар 2012 17:26:22
 Размер:   4,35 GB  (
 Рейтинг:   4,6 (Голосов: 11)
 Поблагодарили:   25
 Проверка:   Оформление проверено модератором 22 Мар 2012 18:46:42
Как cкачать  ·  Как раздать  ·  Правильно оформить  ·  Поднять ратио!  
OlegXXX69
Стаж: 8 лет 8 мес.
Сообщений: 48
Ratio: 30,68
100%
Откуда: вылез из ...
russia.gif
На мой взгляд, один из лучших "юридических" триллеров. Блестящий актёрский дебют Эдварда Нортона

_________________
- Свет мой зеркальце, скажи, да всю правду доложи: я ль на свете всех тупее, всех ленивей и жаднее?
Молвит зеркальце в ответ: "Ты, придурок, - спору нет! Но живёт на белом свете вот таких, как ты, две трети..."
dimitrii36
Стаж: 8 лет
Сообщений: 260
Ratio: 43,539
100%
Откуда: от верблюда
witch.png
Суперский фильм,кто не смотрел,советую.

_________________
Благодарю за труды. Когда мы едины,мы непобедимы!
rostik973 ®
Стаж: 10 лет 1 мес.
Сообщений: 800
Ratio: 31,191
Поблагодарили: 49297
100%
Откуда: Киев
ukraine.gif
Ребята извините раздача начнется завтра нет света
Топик был перенесен из форума Зарубежные Фильмы (DVD) в форум Архив Видео

Причина переноса: сида не было более месяца.
Alex_shadow
Показать сообщения:   
Начать новую тему   Ответить на тему    Торрент-трекер NNM-Club -> Архив торрентов -> Архив Видео Часовой пояс: GMT + 3
Страница 1 из 1