Классический форум-трекер
canvas not supported
Нас вместе: 4 079 176

Последнее испытание Шаолиня / Деревянные люди Шаолиня / Shao Lin mu ren xiang / Shaolin Wooden Men (1976) DVD9 [VO]


 
 
RSS
Начать новую тему   Ответить на тему    Торрент-трекер NNM-Club -> Зарубежное кино -> Азиатское кино (DVD)
Автор Сообщение
Борисыч ®
Uploader 100+
 
Стаж: 9 лет 7 мес.
Сообщений: 299
Ratio: 905,665
Поблагодарили: 12567
100%
Последнее испытание Шаолиня / Shaolin Wooden Men (1976) DVD9
Производство: Тайвань, Гонконг / Lo Wei Motion Picture Company, Toei Central Films
Жанр: боевик

Режиссер: Чэнь Чи-Хва
Актеры: Джеки Чан, Чун-ер Ланг, Кан Чин, Чан Пинъюй, И-Фэй Чанг, Лу Чианг Чао, Вэй Оун Чан, Кэм Чунг, Хсин Чин, Кан Хо

Описание:
Молодой парень по прозвищу Молчун — сирота, который принимает обет молчания после гибели своего отца в от рук мастера боевых искусств. Проживая в шаолиньском монастыре, Молчун сближается с опасным заключённым, который обучает его секретным способам смертельного кунг-фу. Заметив упорство и стремление юноши стать мастером кунг-фу, мастера обучают его другим техникам этого боевого искусства. Молчун преодолевает последнее испытание Шаолиня и отправляется на поиски убийцы своего отца…


Возраст: 12+ (зрителям, достигшим 12 лет)

Продолжительность: 01:46:54
Качество видео: DVD9
Перевод: Любительский одноголосый
Субтитры: Japanese, Chinese

Видео: MPEG-2, NTSC 16:9 (720x480), ~6660 Kbps, 29.970 fps
Audio #1: AC3, 6 ch, 384 kbps - Chinese
Audio #2: DTS, 6 ch, 768 kbps - Chinese
Audio #3: AC3, 2 ch, 192 kbps - Chinese
Audio #4: AC3, 2 ch, 192 kbps - English
Audio #5: AC3, 2 ch, 192 kbps - Russian
Полное имя                               : G:\DVD\Последнее испытание Шаолиня DVD9\VTS_05_1.VOB
Формат : MPEG-PS
Размер файла : 1024 Мбайт
Продолжительность : 16 м.
Режим общего битрейта : Переменный
Общий поток : 8541 Кбит/сек

Видео
Идентификатор : 224 (0xE0)
Формат : MPEG Video
Версия формата : Version 2
Профиль формата : Main@Main
Параметр BVOP формата : Да
Параметр матрицы формата : Выборочная
Продолжительность : 16 м.
Вид битрейта : Переменный
Битрейт : 6657 Кбит/сек
Ширина : 720 пикселей
Высота : 480 пикселей
Соотношение сторон : 16:9
Частота кадров : 29,970 кадров/сек
Стандарт вещания : NTSC
Цветовое пространство : YUV
Субдискретизация насыщенности : 4:2:0
Битовая глубина : 8 бит
Метод сжатия : С потерями
Бит/(Пиксели*Кадры) : 0.643
Размер потока : 798 Мбайт (78%)

Аудио #1
Идентификатор : 189 (0xBD)-128 (0x80)
Формат : AC-3
Формат/Информация : Audio Coding 3
Расширение режима : CM (complete main)
Режим смешивания : DVD-Video
Продолжительность : 16 м.
Вид битрейта : Постоянный
Битрейт : 384 Кбит/сек
Каналы : 6 каналов
Расположение каналов : Front: L C R, Side: L R, LFE
Частота : 48,0 КГц
Битовая глубина : 16 бит
Метод сжатия : С потерями
Задержка видео : -33 мс.
Размер потока : 46,0 Мбайт (4%)

Аудио #2
Идентификатор : 189 (0xBD)-130 (0x82)
Формат : AC-3
Формат/Информация : Audio Coding 3
Расширение режима : CM (complete main)
Режим смешивания : DVD-Video
Продолжительность : 16 м.
Вид битрейта : Постоянный
Битрейт : 192 Кбит/сек
Каналы : 2 канала
Расположение каналов : Front: L R
Частота : 48,0 КГц
Битовая глубина : 16 бит
Метод сжатия : С потерями
Задержка видео : -33 мс.
Размер потока : 23,0 Мбайт (2%)

Аудио #3
Идентификатор : 189 (0xBD)-131 (0x83)
Формат : AC-3
Формат/Информация : Audio Coding 3
Расширение режима : CM (complete main)
Режим смешивания : DVD-Video
Продолжительность : 16 м.
Вид битрейта : Постоянный
Битрейт : 192 Кбит/сек
Каналы : 2 канала
Расположение каналов : Front: L R
Частота : 48,0 КГц
Битовая глубина : 16 бит
Метод сжатия : С потерями
Задержка видео : -33 мс.
Размер потока : 23,0 Мбайт (2%)

Аудио #4
Идентификатор : 189 (0xBD)-132 (0x84)
Формат : AC-3
Формат/Информация : Audio Coding 3
Расширение режима : CM (complete main)
Режим смешивания : DVD-Video
Продолжительность : 16 м.
Вид битрейта : Постоянный
Битрейт : 192 Кбит/сек
Каналы : 2 канала
Расположение каналов : Front: L R
Частота : 48,0 КГц
Битовая глубина : 16 бит
Метод сжатия : С потерями
Задержка видео : -33 мс.
Размер потока : 23,0 Мбайт (2%)

Аудио #5
Идентификатор : 189 (0xBD)-137 (0x89)
Формат : DTS
Формат/Информация : Digital Theater Systems
Режим смешивания : DVD-Video
Продолжительность : 16 м.
Вид битрейта : Постоянный
Битрейт : 755 Кбит/сек
Каналы : 6 каналов
Расположение каналов : Front: L C R, Side: L R, LFE
Частота : 48,0 КГц
Битовая глубина : 24 бит
Метод сжатия : С потерями
Задержка видео : -33 мс.
Размер потока : 90,5 Мбайт (9%)
Title: Последнее испытание Шаолиня DVD9
Size: 7.13 Gb ( 7 472 658,00 KBytes ) - DVD-9
Enabled regions: 1, 2, 3, 4, 5, 6, 7, 8

VTS_01 :
Play Length: 00:00:46+{00:00:46}
Video: NTSC 16:9 (720x480) VBR, Auto Letterboxed
Audio:
English, AC3, 2/0 (L,R) ch, 192 kbps, Delay 0 mSec

VTS_02 :
Play Length: 00:00:34
Video: NTSC 16:9 (720x480) VBR, Auto Letterboxed
Audio:
English, AC3, 3/2 (L,C,R,SL,SR)+LFE ch, 448 kbps, Delay 0 mSec

VTS_03 :
Play Length: 00:00:19
Video: NTSC 16:9 (720x480) VBR, Auto Letterboxed
Audio:
English, DTS, 3/2 (L,C,R,SL,SR), 1536 kbps, Delay 0 mSec

VTS_04 :
Play Length: 00:00:33
Video: NTSC 16:9 (720x480) VBR, Auto Letterboxed
Audio:
English, AC3, 3/2 (L,C,R,SL,SR)+LFE ch, 384 kbps, Delay 0 mSec

VTS_05 :
Play Length: 01:46:54
Video: NTSC 16:9 (720x480) VBR, Auto Letterboxed
Audio:
Chinese, AC3, 3/2 (L,C,R,SL,SR)+LFE ch, 384 kbps, Delay 0 mSec
Chinese, DTS, 3/2 (L,C,R,SL,SR), 768 kbps, Delay 0 mSec
Chinese, AC3, 2/0 (L,R) ch, 192 kbps, Delay 0 mSec
English, AC3, 2/0 (L,R) ch, 192 kbps, Delay 0 mSec
Russian, AC3, 2/0 (L,R) ch, 192 kbps, Delay 0 mSec

Subtitles:
Japanese
Chinese
Chinese

VTS_06 :
Play Length: 00:04:15+00:01:00
Video: NTSC 16:9 (720x480) VBR, Auto Letterboxed
Audio:
Chinese, AC3, 2/0 (L,R) ch, 192 kbps, Delay 0 mSec

VTS_07 :
Play Length: 00:01:20+00:01:53+00:02:00
Video: NTSC 16:9 (720x480) VBR, Auto Letterboxed
Audio:
Chinese, AC3, 3/2 (L,C,R,SL,SR)+LFE ch, 384 kbps, Delay 0 mSec

VTS_08 :
Play Length: 00:01:20
Video: NTSC 16:9 (720x480) VBR, Auto Letterboxed
Audio:
Chinese, AC3, 3/2 (L,C,R,SL,SR)+LFE ch, 384 kbps, Delay 0 mSec
Скриншоты:


Все одноименные релизы в Клубе
[NNM-Club.ru]_Poslednee ispyitanie SHaolinya DVD9.torrent
 Торрент: Платиновая раздача  Зарегистрирован
 
Скачать


Примагнититься
 Зарегистрирован:   05 Июл 2019 19:12:03
 Размер:   7,13 GB  (
 Рейтинг:   4,9 (Голосов: 24)
 Поблагодарили:   103
 Проверка:   Оформление проверено модератором 05 Июл 2019 23:38:18
Как cкачать  ·  Как раздать  ·  Правильно оформить  ·  Поднять ратио!  
karfagen1975
Модератор Видео
Стаж: 8 лет 10 мес.
Сообщений: 3078
Ratio: 118,698
Раздал: 70,04 TB
Поблагодарили: 262708
100%
ussr.gif
Торрент перерегистрирован на трекере в рамках акции Включаем DHT в древних раздачах (Обновлено)
Теперь вам нужно его скачать и открыть в торрент-клиенте, указав в качестве места сохранения раздаваемый файл или папку.
filos123
Стаж: 7 лет 11 мес.
Сообщений: 293
Ratio: 1,407
98.91%
Мастер… ну когда же мы начнем изучать кунг-фу?...
Как … у тебя еще есть силы разговаривать …
Показать сообщения:   
Начать новую тему   Ответить на тему    Торрент-трекер NNM-Club -> Зарубежное кино -> Азиатское кино (DVD) Часовой пояс: GMT + 3
Страница 1 из 1