Классический форум-трекер
canvas not supported
Нас вместе: 4 095 050

Ментовские войны 6 (16 серий из 16) (2011) DVB


 
 
RSS
Начать новую тему   Ответить на тему    Торрент-трекер NNM-Club -> Отечественные сериалы -> Ментовские войны
Автор Сообщение
Garryson ®
Сталкер
Uploader 200+
Стаж: 11 лет 7 мес.
Сообщений: 5023
Ratio: 1088,076
Поблагодарили: 162205
100%
Откуда: DFO
Ментовские войны 6 (16 серий из 16) (2011) DVB
Русское название: Ментовские войны 6
Оригинальное название: Ментовские войны 6
Год выпуска: 2011
Страна: Россия
Жанр: детектив, криминал


Премьера (РФ): 6 февраля 2012


Режиссер: Сергей Раевский
Актеры: Александр Устюгов, Дмитрий Быковский-Ромашов, Янина Соколовская, Марина Игнатова, Александр Лисицын, Всеволод Цурило, Анатолий Узденский, Сергей Лысов, Андрей Кузнецов, Максим Студеновский, Андрей Папанин, Светлана Смирнова, Василий Гузов, Сергей Яценюк, Иван Солнцев, Виталий Коваленко, Анна Волненко, Лилия Гильмутдинова, Вадим Ермилов, Мария Иванова, Андрей Родимов, Владимир Студеновский, Елизавета Ковалева, Александр Ершов, Максим Деричев, Альберт Барбарич, Андрей Горбачев, Михаил Трясоруков, Максим Митяшин, Владимир Селезнёв


Описание фильма:
В новых сериях герои проекта — сотрудники отдела по расследованию умышленных убийств ГУВД Петербурга — продолжат борьбу с наиболее опасными представителями криминальной изнанки города и будут вынуждены вновь столкнуться с так называемыми «оборотнями в погонах», уродливым явлением нашего общества, которые способны причинить не меньший вред, чем закоренелые преступники. Между тем, в жизни Романа Шилова, начальника «убойного отдела», ставшего за время своей службы настоящей легендой правоохранительных органов, произошли серьезные изменения, теперь ему предстоит заботиться не только о своей профессиональной карьере, но и о маленькой дочери Жене, о существовании которой Роман до последнего времени ничего не знал. Однако даже оставаясь наедине с дочерью, Роман не может забыть о служебном долге: однажды прямо на его глазах шайка грабителей совершает налёт на небольшой продуктовый магазин, и, уходя от преследования, бандиты готовы сделать свой мишенью Женю..
Продолжительность: 16 ~ 00:45:00
Качество видео: DVB

Видеокодек: MPEG2
Битрейт видео: ~5127 kbps avg
Размер кадра: 720x576 (4:3), 25.000 fps
Аудиокодек: MPEG Audio Layer 2
Аудио:48 kHz, 2 ch, ~192 kbps avg


Семпл
Формат : MPEG-PS
Размер файла : 1,72 Гбайт
Продолжительность : 45 м.
Режим общего битрейта : Переменный
Общий поток : 5427 Кбит/сек
Библиотека кодирования : (c) 1998-2011 Womble Multimedia, Inc. / MPEG Video Wizard DVD 5.0.1.100 (03/2011) / Dec 19 2011
Видео
Идентификатор : 224 (0xE0)
Формат : MPEG Video
Версия формата : Version 2
Профиль формата : Main@Main
Параметр BVOP формата : Да
Параметр матрицы формата : Выборочная
Параметр GOP формата : M=3, N=24
Продолжительность : 45 м.
Вид битрейта : Переменный
Битрейт : 5127 Кбит/сек
Максимальный битрейт : 15,0 Мбит/сек
Ширина : 720 пикселей
Высота : 576 пикселей
Соотношение сторон : 4:3
Частота кадров : 25,000 кадров/сек
Стандарт вещания : PAL
Цветовое пространство : YUV
Субдискретизация насыщенности : 4:2:0
Битовая глубина : 8 бит
Тип развёртки : Чересстрочная
Порядок развёртки : Верхнее поле первое
Метод сжатия : С потерями
Бит/(Пиксели*Кадры) : 0.495
Размер потока : 1,62 Гбайт (94%)
Библиотека кодирования : (c) 1998-2011 Womble Multimedia, Inc. / MPEG Video Wizard DVD 5.0.1.100 (03/2011) / Dec 19 2011
Аудио
Идентификатор : 192 (0xC0)
Формат : MPEG Audio
Версия формата : Version 1
Профиль формата : Layer 2
Продолжительность : 45 м.
Вид битрейта : Постоянный
Битрейт : 192 Кбит/сек
Каналы : 2 канала
Частота : 48,0 КГц
Метод сжатия : С потерями
Размер потока : 62,2 Мбайт (4%)
Скриншоты:




Ментовские войны

Время раздачи: 24/7
[NNM-Club.ru]_Mentovskie voynyi 6.torrent
 Торрент: Платиновая раздача  Зарегистрирован
 
Скачать


 Зарегистрирован:   28 Мар 2012 09:35:52
 Размер:   27,4 GB  (
 Рейтинг:   4,5 (Голосов: 92)
 Поблагодарили:   349
 Проверка:   Оформление проверено модератором 28 Мар 2012 09:37:51
Как cкачать  ·  Как раздать  ·  Правильно оформить  ·  Поднять ратио!  
doctor75
Стаж: 9 лет 10 мес.
Сообщений: 170
Ratio: 6,746
50.52%
За раздачу МегаРеспект! После скачивания постараюсь как можно дольше быть на раздаче!

_________________
Спорить с тренером по борьбе может
только тренер по стрельбе.
www1414
Стаж: 8 лет 11 мес.
Сообщений: 543
Ratio: 18,93
100%
russia.gif
Отличный сериал!уже два раза смотрел жду 7 сезон
plyuhinv
Стаж: 8 лет 10 мес.
Сообщений: 288
Ratio: 4,524
Раздал: 2,566 TB
100%
Откуда: Львов
ukraine.gif
Спасибо!!! Люблю смотреть фильмы без реклам!!!
rogovanov
Стаж: 8 лет 2 мес.
Сообщений: 1
Ratio: 1,921
5.8%
Дайте скорости. Плиззз
propupil1234
Стаж: 7 лет 10 мес.
Сообщений: 2
Ratio: 0,02
0%
Работа сценаристов достойна отдельных похвал."Ну чо блямба побульоним"-это же надо до такого додуматься
За раздачу спасибо
doctor75
Стаж: 9 лет 10 мес.
Сообщений: 170
Ratio: 6,746
50.52%
релизеру огромный респект! хотелось бы чтобы выложили Ментовские войны-5 в таком же качестве...

_________________
Спорить с тренером по борьбе может
только тренер по стрельбе.
Garryson ®
Сталкер
Uploader 200+
Стаж: 11 лет 7 мес.
Сообщений: 5023
Ratio: 1088,076
Поблагодарили: 162205
100%
Откуда: DFO
doctor75 писал(а): Перейти к сообщению
релизеру огромный респект! хотелось бы чтобы выложили Ментовские войны-5 в таком же качестве...


.....не вопрос...
Garryson ®
Сталкер
Uploader 200+
Стаж: 11 лет 7 мес.
Сообщений: 5023
Ratio: 1088,076
Поблагодарили: 162205
100%
Откуда: DFO
Ментовские войны 5 (16 серий из 16) (2010-2011) DVB
doctor75
Стаж: 9 лет 10 мес.
Сообщений: 170
Ratio: 6,746
50.52%
большущее человеческое СПАСИБО!!! с нетерпением буду ждать 7часть Вашего релиза в таком же качестве!

_________________
Спорить с тренером по борьбе может
только тренер по стрельбе.
s37
Стаж: 8 лет 10 мес.
Сообщений: 20
Ratio: 25,115
4.35%
russia.gif
Дайте скорости друзья.
Показать сообщения:   
Начать новую тему   Ответить на тему    Торрент-трекер NNM-Club -> Отечественные сериалы -> Ментовские войны Часовой пояс: GMT + 3
Страница 1 из 1