Классический форум-трекер
canvas not supported
Нас вместе: 4 089 920

Tsutsu Yume Gunnm / Gunnm / Сны оружия / Боевой Ангел Алита [1993, OVA, 2] DVD5


 
 
RSS
Начать новую тему   Ответить на тему    Торрент-трекер NNM-Club -> Аниме разное -> Аниме DVD
Автор Сообщение
Alex_Fors ®
Стаж: 9 лет 4 мес.
Сообщений: 387
Ratio: 102,587
Поблагодарили: 18444
100%
portugal.gif
Tsutsu Yume Gunnm / Gunnm / Сны оружия / Боевой Ангел Алита
Производство: Япония
Жанр: аниме, мультфильм, фантастика, боевик, драма, криминал
Тип: OVA
Количество серий: 2 из 2
Продолжительность: 2x ~ 00:29:00
Режиссер: Хироши Фукутоми
В ролях: Мики Ито, Аманда Уинн Ли, Shunsuke Kariya, Каппэй Ямагути, Мами Кояма, Шигеру Чиба, Коши Тотани, Kazuyuki Sogabe, Такуми Ямазаки, Ryûzaburô Ôtomo

Битрейт видео: ~5293 kb/s
Размер кадра: NTSC 4:3 (720x480) VBR
Качество видео: DVD5
Аудио: (Dolby AC3, 2 ch) ~192 kb/s |Японский|
Аудио: (Dolby AC3, 2 ch) ~192 kb/s |Английский|
Аудио: (Dolby AC3, 2 ch) ~192 kb/s |Русский,одноголосый закадровый|
Субтитры: Вшитые отключаемые
Язык субтитров: английский, русский, испанский

Описание:
Сюжет разворачивается на планете Земля примерно в XXVI веке по нашему исчислению. Под Небесным городом Салемом находится «нижний город», город-свалка, где живут отбросы общества. Большую часть населения составляют киборги и панки, зачастую являющиеся одновременно и тем и другим. Властных структур в нижнем городе не существует, а общественный порядок устанавливается с помощью объявления награды за голову преступника.

Награды назначаются роботами, официально представляющими Небесный город. Нижний город, в котором запрещён любой воздушный транспорт, а все летательные аппараты просто сбиваются, расположен вокруг мусорной свалки, куда сбрасываются отходы Небесного города. По периметру нижнего города расположено множество мусороперерабатывающих фабрик, поставляющих вторсырьё в Небесный Город и являющихся основой экономики «нижних», за городом находятся фермы, источник продуктов питания. Многие мечтают переехать жить в Небесный город, Салем, и готовы ради этого на любые преступления. Часть преступников занимается тем, что разбирает на запчасти одиноких прохожих.

Однажды вместе с мусором в нижний город сбрасывают останки киборга-гиноида. Киборга находит и чинит доктор Идо, но, как выясняется после починки, девушка ничего не помнит. Идо нарекает её «Гали», как свою умершую кошку. От прежнего тела Гали сохранилась только голова и верхняя часть туловища, но доктор находит недостающие детали и приводит киборга в порядок. Гали обнаруживает, что в состоянии инстинктивно пользоваться боевыми приёмами киборгов. Узнав, что доктор Идо является охотником за головами, Гали тоже выбирает эту стезю, начав поиски утерянных воспоминаний.
СЭМПЛ
Дополнительные материалы: Отсутствуют
Title: Сны оружия.1993.DVD5
Size: 2.35 Gb ( 2 463 056,00 KBytes ) - DVD-5
Enabled regions: 1, 2, 3, 4, 5, 6, 7, 8

VTS_01 :
Play Length: 00:28:59+00:29:01
Video: NTSC 4:3 (720x480) VBR
Audio:
Japanese (Dolby AC3, 2 ch)
English (Dolby AC3, 2 ch)
Russian (Dolby AC3, 2 ch)
Subtitles:
English
Espanol
Russian

* Menus Information *

VIDEO_TS Menu
Video:
NTSC 4:3 (720x480) VBR
Audio:
Not specified (Dolby AC3, 2 ch)
English Language Unit :
Title Menu

VTS_01 Menu
Video:
NTSC 4:3 (720x480) VBR
English Language Unit :
Root Menu
Chapter (PTT) Menu
Формат : MPEG-PS
Размер файла : 1024 Мбайт
Продолжительность : 23 м.
Общий поток : 5988 Кбит/сек

Видео
Идентификатор : 224 (0xE0)
Формат : MPEG Video
Версия формата : Version 2
Профиль формата : Main@Main
Параметр BVOP формата : Да
Параметр матрицы формата : По умолчанию
Продолжительность : 23 м.
Вид битрейта : Переменный
Битрейт : Кбит/сек
Максимальный битрейт : 8000 Кбит/сек
Ширина : 720 пикселей
Высота : 480 пикселей
Соотношение сторон : 4:3
Частота кадров : 29,970 кадров/сек
Стандарт вещания : NTSC
Цветовое пространство : YUV
Субдискретизация насыщенности : 4:2:0
Битовая глубина : 8 бит
Тип развёртки : Чересстрочная
Порядок развёртки : Верхнее поле первое
Метод сжатия : С потерями
Бит/(Пиксели*Кадры) : 0.511
Размер потока : 905 Мбайт (88%)

Аудио #1
Идентификатор : 189 (0xBD)-128 (0x80)
Формат : AC-3
Формат/Информация : Audio Coding 3
Расширение режима : CM (complete main)
Режим смешивания : DVD-Video
Продолжительность : 23 м.
Вид битрейта : Постоянный
Битрейт : 192 Кбит/сек
Каналы : 2 канала
Расположение каналов : Front: L R
Частота : 48,0 КГц
Битовая глубина : 16 бит
Метод сжатия : С потерями
Размер потока : 32,8 Мбайт (3%)

Аудио #2
Идентификатор : 189 (0xBD)-129 (0x81)
Формат : AC-3
Формат/Информация : Audio Coding 3
Расширение режима : CM (complete main)
Режим смешивания : DVD-Video
Продолжительность : 23 м.
Вид битрейта : Постоянный
Битрейт : 192 Кбит/сек
Каналы : 2 канала
Расположение каналов : Front: L R
Частота : 48,0 КГц
Битовая глубина : 16 бит
Метод сжатия : С потерями
Размер потока : 32,8 Мбайт (3%)

Аудио #3
Идентификатор : 189 (0xBD)-130 (0x82)
Формат : AC-3
Формат/Информация : Audio Coding 3
Расширение режима : CM (complete main)
Режим смешивания : DVD-Video
Продолжительность : 23 м.
Вид битрейта : Постоянный
Битрейт : 192 Кбит/сек
Каналы : 2 канала
Расположение каналов : Front: L R
Частота : 48,0 КГц
Битовая глубина : 16 бит
Метод сжатия : С потерями
Размер потока : 32,8 Мбайт (3%)

Меню
Скриншоты:


Время раздачи: 15:00-20:00 до 5 скачавших
[NNM-Club.ru]_Snyi oruzhiya.1993.DVD5.torrent
 Торрент: Платиновая раздача  Зарегистрирован
 
Скачать


Примагнититься
 Зарегистрирован:   28 Мар 2012 14:32:21
 Размер:   2,35 GB  (
 Рейтинг:   4,7 (Голосов: 39)
 Поблагодарили:   115
 Проверка:   Оформление проверено модератором 29 Мар 2012 21:17:29
Как cкачать  ·  Как раздать  ·  Правильно оформить  ·  Поднять ратио!  
Loading...
Corren
Стаж: 10 лет 10 мес.
Сообщений: 407
Ratio: 16,369
100%
russia.gif
спасибо.
kuzmichenko.ev
Стаж: 9 лет 2 мес.
Сообщений: 195
Ratio: 1,083
Раздал: 226 GB
100%
russia.gif
стоит смотреть??
isidzukuri
Стаж: 12 лет 9 мес.
Сообщений: 928
Ratio: 4,436
Поблагодарили: 1717
100%
roody.gif
Отличные новеллы. Без начала и конца. Смотрел давно-давно.
Котлежик
Стаж: 8 лет 8 мес.
Сообщений: 964
Ratio: 50,962
Раздал: 31,21 TB
Поблагодарили: 568
100%
Откуда: Москва
ussr.gif
конечно-же стоит качать и смотреть :)

_________________
Mr. Rob Halford - the God Of Metal for the ages!
Slawa49
Стаж: 10 лет 2 мес.
Сообщений: 143
Ratio: 1,171
Поблагодарили: 3
100%
russia.gif
очень напоминает мультик астробой!
Показать сообщения:   
Начать новую тему   Ответить на тему    Торрент-трекер NNM-Club -> Аниме разное -> Аниме DVD Часовой пояс: GMT + 3
Страница 1 из 1