Классический форум-трекер
canvas not supported
Нас вместе: 4 079 143

Бесстрашная Гиена / Fearless Hyena (1979) DVD9


 
 
RSS
Начать новую тему   Ответить на тему    Торрент-трекер NNM-Club -> Зарубежное кино -> Азиатское кино (DVD)
Автор Сообщение
Борисыч ®
Uploader 100+
 
Стаж: 9 лет 7 мес.
Сообщений: 299
Ratio: 905,644
Поблагодарили: 12564
100%
Бесстрашная Гиена / Fearless Hyena (1979) DVD9
Русское название: Бесстрашная Гиена
Оригинальное название: Fearless Hyena
Год выпуска: 1979
Жанр: Боевик,Кунг-Фу

Описание фильма:
На глазах юноши Ланга убийцы расправляются с любимым дедом, в прошлом знаменитым бойцом. Под руководством старого учителя Ланг обучается искусству борьбы, чтобы отомстить бандитам.

Режиссер: Джеки Чан / Jackie Chan,Кеннет Цан / Kenneth Can
Актеры: Джеки Чан, Джеймс Тьен, Ли Кван, Ян И-Кван, Дин Шек, Ма Чеунг, Рикки Ченг...

Продолжительность: 01:37:02
Перевод: Одноголосый закадровый



Видеокодек: MPEG-2
Битрейт видео: ~29.970 fps ; ~9907.25 kbps avg
Размер кадра: NTSC 16:9 (720x480) VBR Auto Letterboxed
Качество видео: DVD9
Аудиокодек: DTS,AC3
Битрейт аудио:
Audio #1: Chinese AC3, 3/2 (L,C,R,SL,SR)+LFE ch, 384 kbps, Delay 0 mSec
Audio #2: Chinese DTS, 3/2 (L,C,R,SL,SR), 768 kbps, Delay 0 mSec
Audio #3: Chinese AC3, 3/2 (L,C,R,SL,SR)+LFE ch, 384 kbps, Delay 0 mSec
Audio #4: Russian AC3, 3/2 (L,C,R,SL,SR)+LFE ch, 448 kbps, Delay 0 mSec
СЭМПЛ
Полное имя : G:\DVD\Бесстрашная Гиена DVD9\VTS_01_2.VOB
Формат : MPEG-PS
Размер файла : 1024 Мбайт
Продолжительность : 14 м.
Общий поток : 9778 Кбит/сек

Видео
Идентификатор : 224 (0xE0)
Формат : MPEG Video
Версия формата : Version 2
Профиль формата : Main@Main
Параметр BVOP формата : Да
Параметр матрицы формата : Выборочная
Продолжительность : 14 м.
Битрейт : 7600 Кбит/сек
Ширина : 720 пикселей
Высота : 480 пикселей
Соотношение сторон : 16:9
Частота кадров : 29,970 кадров/сек
Стандарт вещания : NTSC
Цветовое пространство : YUV
Субдискретизация насыщенности : 4:2:0
Битовая глубина : 8 бит
Метод сжатия : С потерями
Бит/(Пиксели*Кадры) : 0.734
Размер потока : 797 Мбайт (78%)

Аудио #1
Идентификатор : 189 (0xBD)-128 (0x80)
Формат : AC-3
Формат/Информация : Audio Coding 3
Расширение режима : CM (complete main)
Режим смешивания : DVD-Video
Продолжительность : 14 м.
Вид битрейта : Постоянный
Битрейт : 384 Кбит/сек
Каналы : 6 каналов
Расположение каналов : Front: L C R, Side: L R, LFE
Частота : 48,0 КГц
Битовая глубина : 16 бит
Метод сжатия : С потерями
Задержка видео : -467 мс.
Размер потока : 40,2 Мбайт (4%)

Аудио #2
Идентификатор : 189 (0xBD)-130 (0x82)
Формат : AC-3
Формат/Информация : Audio Coding 3
Расширение режима : CM (complete main)
Режим смешивания : DVD-Video
Продолжительность : 14 м.
Вид битрейта : Постоянный
Битрейт : 384 Кбит/сек
Каналы : 6 каналов
Расположение каналов : Front: L C R, Side: L R, LFE
Частота : 48,0 КГц
Битовая глубина : 16 бит
Метод сжатия : С потерями
Задержка видео : -467 мс.
Размер потока : 40,2 Мбайт (4%)

Аудио #3
Идентификатор : 189 (0xBD)-131 (0x83)
Формат : AC-3
Формат/Информация : Audio Coding 3
Расширение режима : CM (complete main)
Режим смешивания : DVD-Video
Продолжительность : 14 м.
Вид битрейта : Постоянный
Битрейт : 448 Кбит/сек
Каналы : 6 каналов
Расположение каналов : Front: L C R, Side: L R, LFE
Частота : 48,0 КГц
Битовая глубина : 16 бит
Метод сжатия : С потерями
Задержка видео : -499 мс.
Размер потока : 46,9 Мбайт (5%)

Аудио #4
Идентификатор : 189 (0xBD)-137 (0x89)
Формат : DTS
Формат/Информация : Digital Theater Systems
Профиль формата : ES
Режим смешивания : DVD-Video
Продолжительность : 14 м.
Вид битрейта : Постоянный
Битрейт : 755 Кбит/сек
Каналы : 6 каналов
Расположение каналов : Front: L C R, Side: L R, LFE
Частота : 48,0 КГц
Битовая глубина : 16 бит
Метод сжатия : С потерями
Задержка видео : -542 мс.
Размер потока : 79,0 Мбайт (8%)
Title: Бесстрашная Гиена DVD9
Size: 7.44 Gb ( 7 804 930,00 KBytes ) - DVD-9
Enabled regions: 1, 2, 3, 4, 5, 6, 7, 8

VTS_01 :
Play Length: 01:37:02
Video: NTSC 16:9 (720x480) VBR, Auto Letterboxed
Audio:
Chinese, AC3, 3/2 (L,C,R,SL,SR)+LFE ch, 384 kbps, Delay 0 mSec
Chinese, DTS, 3/2 (L,C,R,SL,SR), 768 kbps, Delay 0 mSec
Chinese, AC3, 3/2 (L,C,R,SL,SR)+LFE ch, 384 kbps, Delay 0 mSec
Russian, AC3, 3/2 (L,C,R,SL,SR)+LFE ch, 448 kbps, Delay 0 mSec

Subtitles:
Chinese
Chinese
English
Not specified
Not specified
Not specified

VTS_02 :
Play Length: 00:00:07
Video: NTSC 16:9 (720x480) VBR, Auto Letterboxed

VTS_03 :
Play Length: 00:00:07
Video: NTSC 16:9 (720x480) VBR, Auto Letterboxed

VTS_04 :
Play Length: 00:00:11
Video: NTSC 16:9 (720x480) VBR, Auto Letterboxed

VTS_05 :
Play Length: 00:00:31
Video: NTSC 16:9 (720x480) VBR, Auto Letterboxed
Audio:
Not specified, AC3, 3/2 (L,C,R,SL,SR)+LFE ch, 448 kbps, Delay 522 mSec

VTS_06 :
Play Length: 00:00:34
Video: NTSC 16:9 (720x480) VBR, Auto Letterboxed
Audio:
Not specified, AC3, 3/2 (L,C,R,SL,SR)+LFE ch, 384 kbps, Delay 0 mSec

VTS_07 :
Play Length: 00:00:21
Video: NTSC 16:9 (720x480) VBR, Auto Letterboxed
Audio:
Not specified, DTS, 3/2 (L,C,R,SL,SR), 1536 kbps, Delay 0 mSec

VTS_08 :
Play Length: 00:00:31
Video: NTSC 16:9 (720x480) VBR, Auto Letterboxed
Audio:
Not specified, AC3, 3/2 (L,C,R,SL,SR)+LFE ch, 448 kbps, Delay 516 mSec

VTS_09 :
Play Length: 00:00:07
Video: NTSC 16:9 (720x480) VBR, Auto Letterboxed

VTS_10 :
Play Length: 00:00:07
Video: NTSC 16:9 (720x480) VBR, Auto Letterboxed
Audio:
Not specified, AC3, 2/0 (L,R) ch, 192 kbps, Delay 0 mSec
Not specified, AC3, 2/0 (L,R) ch, 192 kbps, Delay 0 mSec
Not specified, AC3, 2/0 (L,R) ch, 192 kbps, Delay 0 mSec
Not specified, AC3, 2/0 (L,R) ch, 192 kbps, Delay 0 mSec
Not specified, AC3, 2/0 (L,R) ch, 192 kbps, Delay 0 mSec

Subtitles:
Not specified
Not specified
Not specified
Not specified
Not specified
Not specified

VTS_11 :
Play Length: 00:02:11
Video: NTSC 16:9 (720x480) VBR, Auto Letterboxed
Audio:
Chinese, AC3, 2/0 (L,R) ch, 192 kbps, Delay 0 mSec

VTS_12 :
Play Length: 00:04:07
Video: NTSC 16:9 (720x480) VBR, Auto Letterboxed
Audio:
Chinese, AC3, 2/0 (L,R) ch, 192 kbps, Delay 0 mSec

VTS_13 :
Play Length: 00:02:04
Video: NTSC 16:9 (720x480) VBR, Auto Letterboxed
Audio:
Chinese, AC3, 3/2 (L,C,R,SL,SR)+LFE ch, 384 kbps, Delay 0 mSec

VTS_14 :
Play Length: 00:01:32
Video: NTSC 16:9 (720x480) VBR, Auto Letterboxed
Audio:
Not specified, AC3, 2/0 (L,R) ch, 192 kbps, Delay 0 mSec

VTS_15 :
Play Length: 00:02:07
Video: NTSC 16:9 (720x480) VBR, Auto Letterboxed
Audio:
Chinese, AC3, 3/2 (L,C,R,SL,SR)+LFE ch, 384 kbps, Delay 0 mSec

VTS_16 :
Play Length: 00:01:55
Video: NTSC 16:9 (720x480) VBR, Auto Letterboxed
Audio:
Chinese, AC3, 3/2 (L,C,R,SL,SR)+LFE ch, 384 kbps, Delay 0 mSec

VTS_17 :
Play Length: 00:01:55
Video: NTSC 16:9 (720x480) VBR, Auto Letterboxed
Audio:
Chinese, AC3, 3/2 (L,C,R,SL,SR)+LFE ch, 384 kbps, Delay 0 mSec

Скриншоты:
[NNM-Club.ru]_Besstrashnaya Giena DVD9.torrent
 Торрент: Платиновая раздача  Зарегистрирован
 
Скачать


Примагнититься
 Зарегистрирован:   05 Июл 2019 19:09:53
 Размер:   7,44 GB  (
 Рейтинг:   4,9 (Голосов: 15)
 Поблагодарили:   56
 Проверка:   Оформление проверено модератором 05 Июл 2019 23:37:49
Как cкачать  ·  Как раздать  ·  Правильно оформить  ·  Поднять ратио!  
Загрузка...
karfagen1975
Модератор Видео
Стаж: 8 лет 10 мес.
Сообщений: 3076
Ratio: 118,646
Раздал: 70,01 TB
Поблагодарили: 262330
100%
ussr.gif
Торрент перерегистрирован на трекере в рамках акции Включаем DHT в древних раздачах (Обновлено)
Теперь вам нужно его скачать и открыть в торрент-клиенте, указав в качестве места сохранения раздаваемый файл или папку.
Показать сообщения:   
Начать новую тему   Ответить на тему    Торрент-трекер NNM-Club -> Зарубежное кино -> Азиатское кино (DVD) Часовой пояс: GMT + 3
Страница 1 из 1