Классический форум-трекер
canvas not supported
Нас вместе: 4 079 083

Молодой Мастер / The Young Master (1980) DVD9


 
 
RSS
Начать новую тему   Ответить на тему    Торрент-трекер NNM-Club -> Зарубежное кино -> Азиатское кино (DVD)
Автор Сообщение
Борисыч ®
Uploader 100+
 
Стаж: 9 лет 7 мес.
Сообщений: 299
Ratio: 905,665
Поблагодарили: 12567
100%
Молодой Мастер / The Young Master (1980) DVD9
Русское название: Молодой Мастер
Оригинальное название: The Young Master
Год выпуска: 1980
Жанр: Боевик,Кунг-Фу

Описание фильма:
За провинность зазнавшегося юного мастера исключают из школы кунг-фу. Он попадает в сети злодеев, которые вовсю используют его умение махать руками и ногами в преступных целях.По следам молодого бесшабашного мастера идет и полиция и его лучший друг. Успеет ли приятель вырвать его из кольца криминального окружения и направить талант лучшего ученика в мирное русло?!

Режиссер: Джеки Чан / Jackie Chan
Актеры: Джеки Чан,Юэнь Бяо,Вэй Пай,Лили Лай,Кьень Ши,Ван Вэнг,Хак-Он Фанг,Хой Сан Ли,Фенг Тиен,Фенг Фен..

Продолжительность: 01:42:05
Перевод: Одноголосый закадровый
Язык субтитров: английский



Дата мировой премьеры: 9 февраля 1980

Видеокодек: MPEG-2
Битрейт видео: ~25.000 fps ; ~ 6552.03 kbps avg
Размер кадра: PAL 16:9 (720x576) VBR Auto Letterboxed
Качество видео: DVD9
Аудиокодек: AC3
Битрейт аудио:
Audio #1: Russian AC3, 3/2 (L,C,R,SL,SR)+LFE ch, 384 kbps, Delay 0 mSec
Audio #2: English AC3, 3/2 (L,C,R,SL,SR)+LFE ch, 384 kbps, Delay 0 mSec
Audio #3: Chinese AC3, 2/0 (L,R) ch, 192 kbps, Delay 0 mSec
СЭМПЛ
Полное имя : G:\DVD\Молодой Мастер DVD9\VIDEO_TS\VTS_01_1.VOB
Формат : MPEG-PS
Размер файла : 1024 Мбайт
Продолжительность : 22 м.
Режим общего битрейта : Переменный
Общий поток : 6399 Кбит/сек

Видео
Идентификатор : 224 (0xE0)
Формат : MPEG Video
Версия формата : Version 2
Профиль формата : Main@Main
Параметр BVOP формата : Да
Параметр матрицы формата : Выборочная
Параметр GOP формата : M=3, N=12
Продолжительность : 22 м.
Вид битрейта : Переменный
Битрейт : 5312 Кбит/сек
Максимальный битрейт : 8600 Кбит/сек
Ширина : 720 пикселей
Высота : 576 пикселей
Соотношение сторон : 16:9
Частота кадров : 25,000 кадров/сек
Стандарт вещания : PAL
Цветовое пространство : YUV
Субдискретизация насыщенности : 4:2:0
Битовая глубина : 8 бит
Тип развёртки : Чересстрочная
Порядок развёртки : Верхнее поле первое
Метод сжатия : С потерями
Бит/(Пиксели*Кадры) : 0.512
Размер потока : 850 Мбайт (83%)

Аудио #1
Идентификатор : 189 (0xBD)-128 (0x80)
Формат : AC-3
Формат/Информация : Audio Coding 3
Расширение режима : CM (complete main)
Режим смешивания : DVD-Video
Продолжительность : 22 м.
Вид битрейта : Постоянный
Битрейт : 384 Кбит/сек
Каналы : 6 каналов
Расположение каналов : Front: L C R, Side: L R, LFE
Частота : 48,0 КГц
Битовая глубина : 16 бит
Метод сжатия : С потерями
Задержка видео : -80 мс.
Размер потока : 61,4 Мбайт (6%)

Аудио #2
Идентификатор : 189 (0xBD)-129 (0x81)
Формат : AC-3
Формат/Информация : Audio Coding 3
Расширение режима : CM (complete main)
Режим смешивания : DVD-Video
Продолжительность : 22 м.
Вид битрейта : Постоянный
Битрейт : 384 Кбит/сек
Каналы : 6 каналов
Расположение каналов : Front: L C R, Side: L R, LFE
Частота : 48,0 КГц
Битовая глубина : 16 бит
Метод сжатия : С потерями
Задержка видео : -80 мс.
Размер потока : 61,4 Мбайт (6%)

Аудио #3
Идентификатор : 189 (0xBD)-130 (0x82)
Формат : AC-3
Формат/Информация : Audio Coding 3
Расширение режима : CM (complete main)
Режим смешивания : DVD-Video
Продолжительность : 22 м.
Вид битрейта : Постоянный
Битрейт : 192 Кбит/сек
Каналы : 2 канала
Расположение каналов : Front: L R
Частота : 48,0 КГц
Битовая глубина : 16 бит
Метод сжатия : С потерями
Задержка видео : -80 мс.
Размер потока : 30,7 Мбайт (3%)
Title: Молодой Мастер DVD9
Size: 6.42 Gb ( 6 733 750,00 KBytes ) - DVD-9
Enabled regions: 1, 2, 3, 4, 5, 6, 7, 8

VTS_01 :
Play Length: 01:42:05
Video: PAL 16:9 (720x576) VBR, Auto Letterboxed
Audio:
Russian, AC3, 3/2 (L,C,R,SL,SR)+LFE ch, 384 kbps, Delay 0 mSec
English, AC3, 3/2 (L,C,R,SL,SR)+LFE ch, 384 kbps, Delay 0 mSec
Chinese, AC3, 2/0 (L,R) ch, 192 kbps, Delay 0 mSec

Subtitles:
English
Not specified

VTS_02 :
Play Length: 00:01:51+00:03:46+00:28:03+00:02:54+00:06:12
Video: PAL 16:9 (720x576) VBR, Auto Letterboxed
Audio:
English (Dolby AC3, 2 ch)
Subtitles:
English
Скриншоты:
[NNM-Club.ru]_Molodoy Master DVD9.torrent
 Торрент: Платиновая раздача  Зарегистрирован
 
Скачать


Примагнититься
 Зарегистрирован:   05 Июл 2019 19:15:39
 Размер:   6,42 GB  (
 Рейтинг:   4,3 (Голосов: 19)
 Поблагодарили:   65
 Проверка:   Оформление проверено модератором 05 Июл 2019 23:39:21
Как cкачать  ·  Как раздать  ·  Правильно оформить  ·  Поднять ратио!  
Memph
Покровитель талантов
 
Стаж: 9 лет 7 мес.
Сообщений: 1278
Ratio: 3,839
Раздал: 3,05 TB
Поблагодарили: 2466
100%
Откуда: г. Железногорск (46)
russia.gif
лютое махалово, берем-с.
Tribler
Стаж: 4 года 8 мес.
Сообщений: 310
Ratio: 1,446
100%
...daaa -postanovka boev velikolepnaya!..
karfagen1975
Модератор Видео
Стаж: 8 лет 10 мес.
Сообщений: 3078
Ratio: 118,698
Раздал: 70,04 TB
Поблагодарили: 262752
100%
ussr.gif
Торрент перерегистрирован на трекере в рамках акции Включаем DHT в древних раздачах (Обновлено)
Теперь вам нужно его скачать и открыть в торрент-клиенте, указав в качестве места сохранения раздаваемый файл или папку.
Показать сообщения:   
Начать новую тему   Ответить на тему    Торрент-трекер NNM-Club -> Зарубежное кино -> Азиатское кино (DVD) Часовой пояс: GMT + 3
Страница 1 из 1