Классический форум-трекер
canvas not supported
Нас вместе: 4 077 933

Кто я? / Who am i? (1998) DVD9


 
 
RSS
Начать новую тему   Ответить на тему    Торрент-трекер NNM-Club -> Зарубежное кино -> Азиатское кино (DVD)
Автор Сообщение
Борисыч ®
Uploader 100+
 
Стаж: 9 лет 6 мес.
Сообщений: 298
Ratio: 928,334
Поблагодарили: 12509
100%
Кто я? / Who am i? (1998) DVD9
Русское название: Кто я?
Оригинальное название: Who am i?
Год выпуска: 1998
Жанр: Боевик, Комедия, Приключения

Описание фильма:
Группа спецназа, работающая под прикрытием ЦРУ, направляется на задание по вывозу энергетического тела, которое было найдено учеными в африканских джунглях. По окончании операции всю группу пытаются ликвидировать.Один из солдат, выживший после авиакатастрофы, но потерявший память, пытается бороться со своими мыслями и вспомнить, кто он. На пути к истине ему мешают, и он не знает, кому можно верить.

Режиссер: Джеки Чан / Jackie Chan,Бенни Чан / Benni Chan
Актеры: Джеки Чан, Мишель Ферре, Мираи Ямамото, Рон Смержак, Эд Нелсон, Том Ромперт, Глори Саймон...

Продолжительность: 02:00:17

Перевод 1: Дублированный
Перевод 2: Многоголосый закадровый РТР
Перевод 3: Любительский одноголосый (Кашкин)
Язык субтитров: русский
Вид субтитров: Вшитые отключаемые



Дата мировой премьеры: 17 января 1998

Видеокодек: MPEG-2
Битрейт видео: ~ 23.976 fps ; ~ 8885.97 kbps avg
Размер кадра: NTSC 16:9 (720x480) VBR Auto Letterboxed
Качество видео: DVD9 Custom
Аудиокодек: DTS,AC3
Битрейт аудио:
Audio #1: Russian AC3, 3/2 (L,C,R,SL,SR)+LFE ch, 384 kbps, Delay 0 mSec Дубляж
Audio #2: Russian AC3, 2/0 (L,R) ch, 192 kbps, Delay 0 mSec Кашкин
Audio #3: English DTS, 3/2 (L,C,R,SL,SR), 768 kbps, Delay 0 mSec
Audio #4: Russian AC3, 2/0 (L,R) ch, 192 kbps, Delay 0 mSec Многоголосый РТР
СЭМПЛ
Полное имя : G:\DVD\Кто я DVD9\VIDEO_TS\VTS_01_2.VOB
Формат : MPEG-PS
Размер файла : 1024 Мбайт
Продолжительность : 15 м.
Режим общего битрейта : Переменный
Общий поток : 9021 Кбит/сек

Видео
Идентификатор : 224 (0xE0)
Формат : MPEG Video
Версия формата : Version 2
Профиль формата : Main@Main
Параметр BVOP формата : Да
Параметр матрицы формата : Выборочная
Продолжительность : 15 м.
Вид битрейта : Переменный
Битрейт : 7319 Кбит/сек
Максимальный битрейт : 9800 Кбит/сек
Ширина : 720 пикселей
Высота : 480 пикселей
Соотношение сторон : 16:9
Частота кадров : 23,976 кадра/сек
Стандарт вещания : NTSC
Цветовое пространство : YUV
Субдискретизация насыщенности : 4:2:0
Битовая глубина : 8 бит
Тип развёртки : Прогрессивная
Порядок развёртки : 2:3 Pulldown
Метод сжатия : С потерями
Бит/(Пиксели*Кадры) : 0.883
Размер потока : 830 Мбайт (81%)

Аудио #1
Идентификатор : 189 (0xBD)-128 (0x80)
Формат : AC-3
Формат/Информация : Audio Coding 3
Расширение режима : CM (complete main)
Режим смешивания : DVD-Video
Продолжительность : 15 м.
Вид битрейта : Постоянный
Битрейт : 384 Кбит/сек
Каналы : 6 каналов
Расположение каналов : Front: L C R, Side: L R, LFE
Частота : 48,0 КГц
Битовая глубина : 16 бит
Метод сжатия : С потерями
Задержка видео : -687 мс.
Размер потока : 43,6 Мбайт (4%)

Аудио #2
Идентификатор : 189 (0xBD)-129 (0x81)
Формат : AC-3
Формат/Информация : Audio Coding 3
Расширение режима : CM (complete main)
Режим смешивания : DVD-Video
Продолжительность : 15 м.
Вид битрейта : Постоянный
Битрейт : 192 Кбит/сек
Каналы : 2 канала
Расположение каналов : Front: L R
Частота : 48,0 КГц
Битовая глубина : 16 бит
Метод сжатия : С потерями
Задержка видео : -655 мс.
Размер потока : 21,8 Мбайт (2%)

Аудио #3
Идентификатор : 189 (0xBD)-131 (0x83)
Формат : AC-3
Формат/Информация : Audio Coding 3
Расширение режима : CM (complete main)
Режим смешивания : DVD-Video
Продолжительность : 15 м.
Вид битрейта : Постоянный
Битрейт : 192 Кбит/сек
Каналы : 2 канала
Расположение каналов : Front: L R
Частота : 48,0 КГц
Битовая глубина : 16 бит
Метод сжатия : С потерями
Задержка видео : -655 мс.
Размер потока : 21,8 Мбайт (2%)

Аудио #4
Идентификатор : 189 (0xBD)-138 (0x8A)
Формат : DTS
Формат/Информация : Digital Theater Systems
Режим смешивания : DVD-Video
Продолжительность : 15 м.
Вид битрейта : Постоянный
Битрейт : 755 Кбит/сек
Каналы : 6 каналов
Расположение каналов : Front: L C R, Side: L R, LFE
Частота : 48,0 КГц
Битовая глубина : 16 бит
Метод сжатия : С потерями
Задержка видео : -741 мс.
Размер потока : 85,6 Мбайт (8%)
Title: Кто я DVD9
Size: 7.48 Gb ( 7 839 490,00 KBytes ) - DVD-9
Enabled regions: 1, 2, 3, 4, 5, 6, 7, 8

VTS_01 :
Play Length: 02:00:10+00:00:07
Video: NTSC 16:9 (720x480) VBR, Auto Letterboxed
Audio:
Russian, AC3, 3/2 (L,C,R,SL,SR)+LFE ch, 384 kbps, Delay 0 mSec
Russian, AC3, 2/0 (L,R) ch, 192 kbps, Delay 0 mSec
English, DTS, 3/2 (L,C,R,SL,SR), 768 kbps, Delay 0 mSec
Russian, AC3, 2/0 (L,R) ch, 192 kbps, Delay 0 mSec

Subtitles:
Russian

VTS_02 :
Play Length: 00:00:12
Video: NTSC 16:9 (720x480) VBR, Auto Letterboxed
Audio:
Russian (Dolby AC3, 6 ch)
Russian (Dolby AC3, 2 ch)
English (DTS, 6 ch)
Russian (Dolby AC3, 2 ch)
Subtitles:
Russian
Скриншоты:
[NNM-Club.ru]_Kto ya DVD9.torrent
 Торрент: Платиновая раздача  Зарегистрирован
 
Скачать


Примагнититься
 Зарегистрирован:   05 Июл 2019 19:13:56
 Размер:   7,48 GB  (
 Рейтинг:   4,8 (Голосов: 41)
 Поблагодарили:   97
 Проверка:   Оформление проверено модератором 05 Июл 2019 23:38:54
Как cкачать  ·  Как раздать  ·  Правильно оформить  ·  Поднять ратио!  
chvv
Стаж: 9 лет 1 мес.
Сообщений: 536
Ratio: 111,518
Поблагодарили: 19579
100%
Откуда: Москва
russia.gif
Огромное спасибо раздающему! Дай Вам бог всего самого лучшего!!!

_________________
Рекламные ролики и голосовая реклама в моих раздачах отсутствуют.
AKIM0V
Стаж: 3 года 10 мес.
Сообщений: 7
Ratio: 9,562
100%
Откуда: Санкт-Петербург
russia.gif
Версия не полная.
karfagen1975
Модератор Видео
Стаж: 8 лет 9 мес.
Сообщений: 3071
Ratio: 118,514
Раздал: 69,94 TB
Поблагодарили: 261386
100%
ussr.gif
Торрент перерегистрирован на трекере в рамках акции Включаем DHT в древних раздачах (Обновлено)
Теперь вам нужно его скачать и открыть в торрент-клиенте, указав в качестве места сохранения раздаваемый файл или папку.
Показать сообщения:   
Начать новую тему   Ответить на тему    Торрент-трекер NNM-Club -> Зарубежное кино -> Азиатское кино (DVD) Часовой пояс: GMT + 3
Страница 1 из 1