Классический форум-трекер
canvas not supported
Нас вместе: 4 081 391

Элитный отряд: Враг внутри / Tropa de Elite 2 - O Inimigo Agora É Outro (2010) [H.264/720р-LQ] BDRip


 
 
RSS
Начать новую тему   Ответить на тему    Торрент-трекер NNM-Club -> Зарубежное кино -> Зарубежные Фильмы (HD*Rip/LQ, DVDRip, SATRip, VHSRip)
Автор Сообщение
Rocky Balboa ®
Стаж: 8 лет 6 мес.
Сообщений: 1783
Ratio: 38,777
Поблагодарили: 301995
100%
Элитный отряд: Враг внутри / Tropa de Elite 2 - O Inimigo Agora É Outro (2010) [H.264/720р-LQ] BDRip
Русское название: Элитный отряд: Враг внутри
Оригинальное название: Tropa de Elite 2 - O Inimigo Agora É Outro
Год выпуска: 2010
Производство: Бразилия
Жанр: Триллер, Драма, Криминал
Перевод: Одноголосый закадровый, профессиональный
Автор перевода: Ю.Сербин
Субтитры: Вшитые отключаемые
Язык субтитров: Русский, Английский, Португальский

Дата мировой премьеры: 8 октября 2010

Режиссер: Жозе Падилья
Продюсер: Жозе Падилья, Маркос Прадо, Джеймс Д’Арси
Актеры: Вагнер Мора, Андре Рамиро, Pedro Van-Held, Мария Рибейро, Сандро Роча, Мильем Кортас, Таина Мюллер, Сеу Хорхе, Андре Маттос

Описание фильма:
Элитный отряд показал себя весьма эффективным средством борьбы с наркокартелями, перекрыв кислород организованной преступности и разгромив несколько банд. Но тут совершенно неожиданно силы правопорядка начинают терпеть одно поражение за другим.



Продолжительность: 01:54:48
Качество видео: BDRip

Видеокодек: MPEG-4 AVC/H.264
Битрейт видео: ~1774 Kbps Кбит/сек
Размер кадра: 1280x720
Аудио #1: Русский, 48 kHz, AC3 Dolby Digital, 6 ch, ~448 kbps | Одноголосый закадровый
Аудио #2: Португальский, 48 kHz, AC3 Dolby Digital, 6 ch, ~448 kbps | Оригинальная звуковая дорожка
General
Unique ID : 245695532121238432910792813200926546377 (0xB8D73CFE0BF4180F9F3A42E4E7EF99C9)
Complete name : Tropa.de.Elite.2.2010.720p-LQ.BluRay.x264.mkv
Format : Matroska
Format version : Version 2
File size : 2.14 GiB
Duration : 1h 54mn
Overall bit rate mode : Variable
Overall bit rate : 2 672 Kbps
Movie name : Elite.Squad.2.-Liones-
Encoded date : UTC 2012-03-30 19:02:37
Writing application : mkvmerge v4.5.0 ('Speed of Light') сборка от Feb 1 2011 02:10:32
Writing library : libebml v1.2.0 + libmatroska v1.1.0

Video
ID : 1
Format : AVC
Format/Info : Advanced Video Codec
Format profile : High@L4.1
Format settings, CABAC : Yes
Format settings, ReFrames : 3 frames
Codec ID : V_MPEG4/ISO/AVC
Duration : 1h 54mn
Bit rate mode : Variable
Bit rate : 1 774 Kbps
Maximum bit rate : 13.0 Mbps
Width : 1 280 pixels
Height : 720 pixels
Display aspect ratio : 16:9
Frame rate : 23.976 fps
Color space : YUV
Chroma subsampling : 4:2:0
Bit depth : 8 bits
Scan type : Progressive
Bits/(Pixel*Frame) : 0.080
Stream size : 1.38 GiB (64%)
Title : Elite.Squad.2.-Liones-
Writing library : x264 core 112 r1867 22bfd31
Encoding settings : cabac=1 / ref=4 / deblock=1:0:0 / analyse=0x3:0x113 / me=hex / subme=7 / psy=1 / psy_rd=1.00:0.00 / mixed_ref=1 / me_range=16 / chroma_me=1 / trellis=1 / 8x8dct=1 / cqm=0 / deadzone=21,11 / fast_pskip=1 / chroma_qp_offset=-2 / threads=4 / sliced_threads=0 / slices=4 / nr=0 / decimate=1 / interlaced=0 / constrained_intra=0 / bframes=3 / b_pyramid=1 / b_adapt=1 / b_bias=0 / direct=1 / weightb=1 / open_gop=2 / weightp=0 / keyint=24 / keyint_min=2 / scenecut=40 / intra_refresh=0 / rc_lookahead=27 / rc=2pass / mbtree=1 / bitrate=1774 / ratetol=1.0 / qcomp=0.60 / qpmin=0 / qpmax=51 / qpstep=4 / cplxblur=20.0 / qblur=0.5 / vbv_maxrate=13000 / vbv_bufsize=15000 / nal_hrd=vbr / ip_ratio=1.40 / aq=1:1.00
Language : Portuguese
Default : Yes
Forced : Yes
Color primaries : BT.709-5, BT.1361, IEC 61966-2-4, SMPTE RP177
Transfer characteristics : BT.709-5, BT.1361
Matrix coefficients : BT.709-5, BT.1361, IEC 61966-2-4 709, SMPTE RP177

Audio #1
ID : 2
Format : AC-3
Format/Info : Audio Coding 3
Mode extension : CM (complete main)
Codec ID : A_AC3
Duration : 1h 54mn
Bit rate mode : Constant
Bit rate : 448 Kbps
Channel(s) : 6 channels
Channel positions : Front: L C R, Side: L R, LFE
Sampling rate : 48.0 KHz
Bit depth : 16 bits
Compression mode : Lossy
Stream size : 368 MiB (17%)
Title : Russian.VO.Serbin
Language : Russian
Default : Yes
Forced : No

Audio #2
ID : 3
Format : AC-3
Format/Info : Audio Coding 3
Mode extension : CM (complete main)
Codec ID : A_AC3
Duration : 1h 54mn
Bit rate mode : Constant
Bit rate : 448 Kbps
Channel(s) : 6 channels
Channel positions : Front: L C R, Side: L R, LFE
Sampling rate : 48.0 KHz
Bit depth : 16 bits
Compression mode : Lossy
Stream size : 368 MiB (17%)
Title : Portguese.Original
Language : Portuguese
Default : No
Forced : No

Text #1
ID : 4
Format : UTF-8
Codec ID : S_TEXT/UTF8
Codec ID/Info : UTF-8 Plain Text
Title : Russian Subtitles
Language : Russian
Default : No
Forced : No

Text #2
ID : 5
Format : UTF-8
Codec ID : S_TEXT/UTF8
Codec ID/Info : UTF-8 Plain Text
Title : English Subtitles
Language : English
Default : No
Forced : No

Text #3
ID : 6
Format : UTF-8
Codec ID : S_TEXT/UTF8
Codec ID/Info : UTF-8 Plain Text
Title : Portguese (brazil) Subtitles
Language : Portuguese
Default : No
Forced : No
Скриншоты:


Время раздачи: по возможности, обычно с 10:00 до 22:00 (по МСК), до 20 скачавших
[NNM-Club.ru]_Tropa.de.Elite.2.2010.720p-LQ.BluRay.x264.mkv.torrent
 Торрент: Платиновая раздача  Зарегистрирован
 
Скачать


Примагнититься
 Зарегистрирован:   30 Мар 2012 22:30:38
 Размер:   2,14 GB  (
 Рейтинг:   4,8 (Голосов: 44)
 Поблагодарили:   191
 Проверка:   Оформление проверено модератором 31 Мар 2012 11:20:44
Как cкачать  ·  Как раздать  ·  Правильно оформить  ·  Поднять ратио!  
ilfati
Стаж: 7 лет 11 мес.
Сообщений: 345
Ratio: 4,11
Раздал: 1,808 TB
100%
Откуда: казань
russia.gif
спасибо большой вам! :приветствую: :супер!: :приветствую:
ctp3j7ok
Стаж: 10 лет 5 мес.
Сообщений: 31
Ratio: 12,854
100%
russia.gif
Посмотрим, первая часть была очень неплохим фильмом.
Paladin
Стаж: 10 лет 6 мес.
Сообщений: 667
Ratio: 42,819
Раздал: 35,29 TB
Поблагодарили: 4161
100%
nnm-club.gif
Отличные фильмы! :клево:
Жаль официальной озвучки нет
vovansrnd
Стаж: 8 лет 3 мес.
Сообщений: 904
Ratio: 56,223
Поблагодарили: 322
100%
хороший фильм! Обе серии понравились!
Показать сообщения:   
Начать новую тему   Ответить на тему    Торрент-трекер NNM-Club -> Зарубежное кино -> Зарубежные Фильмы (HD*Rip/LQ, DVDRip, SATRip, VHSRip) Часовой пояс: GMT + 3
Страница 1 из 1