Классический форум-трекер
canvas not supported
Нас вместе: 4 095 079

То, что её заводит / Fa meg pa, for faen (2011) [H.264] HDRip [ПМ NOW]


 
 
RSS
Начать новую тему   Ответить на тему    Торрент-трекер NNM-Club -> Архив торрентов -> Архив Видео
Автор Сообщение
Rocky Balboa ®
Стаж: 8 лет 9 мес.
Сообщений: 1785
Ratio: 37,66
Поблагодарили: 302770
100%
То, что её заводит / Fa meg pa, for faen (2011) [H.264] HDRip
Русское название: То, что ее заводит
Оригинальное название: Fa meg pa, for faen
Год выпуска: 2011
Производство: Motlys [Норвегия]
Жанр: Комедия
Перевод: Многоголосый закадровый, профессиональный
Озвучка / Автор перевода: NOW
Субтитры: Вшитые отключаемые
Язык субтитров: Русский, Английский, Норвежский

Дата мировой премьеры: 20 апреля 2011
Дата российской премьеры: 29 марта 2012, «Русский репортаж»

Режиссер: Яннике Систад Якобсен
Актеры: Хелен Бергшолм, Генриетта Стинстрап, Джулия Баке-Виг, Джулия Элиз Шахт, Артур Бернинг

Описание фильма:
Альме 15 лет, ее самые «заводные» годы проходят в захолустном норвежском городке. Здесь тишина, покой и овечки на лугах — кошмар для барышни с чрезвычайно развитым воображением и непрекращающимся гормональным взрывом! Неудивительно, что Альма полностью погрузилась в эротические мечты, подогреваемые телефонной службой «Дикие и горячие фантазии». И только мама возвращает Альму к реальности, когда видит счета за «секс по телефону»!



Продолжительность: 01:12:33
Качество видео: HDRip

Видеокодек: MPEG-4 AVC/H.264
Битрейт видео: ~1944 Кбит/сек
Размер кадра: 1024x560
Аудио #1: Русский, AC3, 2 ch., 48 kHz, 256.00 Кбит/сек | Многоголосый закадровый, профессиональный
Аудио #2: Норвежский, AC3, 6 ch., 48 kHz, 384.00 Кбит/сек | Оригинальная звуковая дорожка
General
Unique ID : 178500559758148929566114264763985089724 (0x8649F51273CBF3FC85C198554964D4BC)
Complete name : Turn.Me.On.Dammit.2011.HDRip.x264.mkv
Format : Matroska
Format version : Version 2
File size : 1.31 GiB
Duration : 1h 12mn
Overall bit rate : 2 584 Kbps
Movie name : Turn.Me.On.Dammit.2011.HDRip.x264
Encoded date : UTC 2012-04-01 09:04:29
Writing application : mkvmerge v4.5.0 ('Speed of Light') сборка от Feb 1 2011 02:10:32
Writing library : libebml v1.2.0 + libmatroska v1.1.0

Video
ID : 1
Format : AVC
Format/Info : Advanced Video Codec
Format profile : High@L4.1
Format settings, CABAC : Yes
Format settings, ReFrames : 4 frames
Codec ID : V_MPEG4/ISO/AVC
Duration : 1h 12mn
Bit rate : 1 944 Kbps
Width : 1 024 pixels
Height : 560 pixels
Display aspect ratio : 16:9
Frame rate : 25.000 fps
Color space : YUV
Chroma subsampling : 4:2:0
Bit depth : 8 bits
Scan type : Progressive
Bits/(Pixel*Frame) : 0.136
Stream size : 982 MiB (73%)
Title : Turn.Me.On.Dammit.2011.HDRip.x264
Writing library : x264 core 119 r2106 07efeb4
Encoding settings : cabac=1 / ref=3 / deblock=1:0:0 / analyse=0x3:0x113 / me=umh / subme=7 / psy=1 / psy_rd=1.00:0.00 / mixed_ref=1 / me_range=16 / chroma_me=1 / trellis=1 / 8x8dct=1 / cqm=0 / deadzone=21,11 / fast_pskip=1 / chroma_qp_offset=-2 / threads=12 / sliced_threads=0 / nr=0 / decimate=1 / interlaced=0 / bluray_compat=0 / constrained_intra=0 / bframes=3 / b_pyramid=2 / b_adapt=1 / b_bias=0 / direct=3 / weightb=1 / open_gop=0 / weightp=2 / keyint=250 / keyint_min=25 / scenecut=40 / intra_refresh=0 / rc_lookahead=40 / rc=2pass / mbtree=1 / bitrate=1944 / ratetol=1.0 / qcomp=0.60 / qpmin=0 / qpmax=69 / qpstep=4 / cplxblur=20.0 / qblur=0.5 / ip_ratio=1.40 / aq=1:1.00
Language : Norwegian
Default : Yes
Forced : Yes

Audio #1
ID : 2
Format : AC-3
Format/Info : Audio Coding 3
Mode extension : CM (complete main)
Codec ID : A_AC3
Duration : 1h 12mn
Bit rate mode : Constant
Bit rate : 256 Kbps
Channel(s) : 2 channels
Channel positions : Front: L R
Sampling rate : 48.0 KHz
Bit depth : 16 bits
Compression mode : Lossy
Stream size : 133 MiB (10%)
Title : Russian.MVO.Nowfilms
Language : Russian
Default : Yes
Forced : No

Audio #2
ID : 3
Format : AC-3
Format/Info : Audio Coding 3
Mode extension : CM (complete main)
Codec ID : A_AC3
Duration : 1h 12mn
Bit rate mode : Constant
Bit rate : 384 Kbps
Channel(s) : 6 channels
Channel positions : Front: L C R, Side: L R, LFE
Sampling rate : 48.0 KHz
Bit depth : 16 bits
Compression mode : Lossy
Stream size : 199 MiB (15%)
Title : Norwegian.Original
Language : Norwegian
Default : No
Forced : No

Text #1
ID : 4
Format : UTF-8
Codec ID : S_TEXT/UTF8
Codec ID/Info : UTF-8 Plain Text
Title : Russian Subtitles
Language : Russian
Default : No
Forced : No

Text #2
ID : 5
Format : UTF-8
Codec ID : S_TEXT/UTF8
Codec ID/Info : UTF-8 Plain Text
Title : English Subtitles
Language : English
Default : No
Forced : No

Text #3
ID : 6
Format : UTF-8
Codec ID : S_TEXT/UTF8
Codec ID/Info : UTF-8 Plain Text
Title : Norwegian Subtitles
Language : Norwegian
Default : No
Forced : No
Скриншоты:



Время раздачи: по возможности, обычно с 10:00 до 23:00 (по МСК), до 20 скачавших
[NNM-Club.ru]_Turn.Me.On.Dammit.2011.HDRip.x264.mkv.torrent
 Торрент: Золотая раздача  Зарегистрирован
 
Зарегистрируйтесь и скачайте торрент!
13,4 KB

Примагнититься
 Зарегистрирован:   01 Апр 2012 12:24:47
 Размер:   1,31 GB  (
 Рейтинг:   4,2 (Голосов: 21)
 Поблагодарили:   81
 Проверка:   Оформление проверено модератором 01 Апр 2012 14:13:50
Как cкачать  ·  Как раздать  ·  Правильно оформить  ·  Поднять ратио!  
dogma-82
Стаж: 8 лет
Сообщений: 6
Ratio: 3,423
3.91%
Как фильм?
юг71
Стаж: 8 лет 9 мес.
Сообщений: 416
Ratio: 10,618
Раздал: 160 GB
Откуда: с другой стороны монитора
russia.gif
dogma-82
на вкус и цвет.......
моё мнение фильм чепуха (

_________________
Если ты споришь с идиотом , вероятней всего он делает тоже самое .
Sea Katz
Стаж: 9 лет 2 мес.
Сообщений: 1504
Ratio: 1,687
Раздал: 445 GB
100%
Откуда: Морские просторы
pirates.png
Сдаётся мне, фильм снимала норвежская Гай Германика при финансировании Израиля.
aldar kose
Стаж: 8 лет 3 мес.
Сообщений: 230
Ratio: 35,984
Раздал: 17,07 TB
Поблагодарили: 3990
100%
Откуда: Из города на Неве
russia.gif
Норвежская "Лолита" :подмигивание:

Оо меня на 1 апреля админом сделали :лол:
Warhamer
Стаж: 10 лет 9 мес.
Сообщений: 275
Ratio: 1,966
5.59%
witch.png
фильм ни о чем, а жизнь главных героев унылое гов
Miwa_1991
Стаж: 8 лет 3 мес.
Сообщений: 4
Ratio: 1,128
100%
Фильм неочём))
с праздником всех!))

Добавлено спустя 36 секунд:

ого) меня админом сделали?О_О
ыы))) круто!))
sgas
Стаж: 10 лет 5 мес.
Сообщений: 27
Ratio: 7,79
3.43%
ukraine.gif
Хорошо под него спится
Топик был перенесен из форума Зарубежные Новинки (HD*Rip/LQ, DVDRip) в форум Архив Видео


Lelya_K
Показать сообщения:   
Начать новую тему   Ответить на тему    Торрент-трекер NNM-Club -> Архив торрентов -> Архив Видео Часовой пояс: GMT + 3
Страница 1 из 1