Классический форум-трекер
canvas not supported
Нас вместе: 4 076 737

Игра престолов / Game of Thrones (Сезон 2 полный (10)) (2012) WEB-DL 720р (LostFilm)


Страницы:  1, 2, 3, 4, 5, 6, 7  След. 
 
RSS
Начать новую тему   Ответить на тему    Торрент-трекер NNM-Club -> Зарубежные сериалы -> Игра престолов / Game of Thrones
Автор Сообщение
TollayaEkb ®
Стаж: 9 лет 4 мес.
Сообщений: 5762
Ratio: 2181,467
Раздал: 116,5 TB
Поблагодарили: 217283
100%
Откуда: Екб
russia.gif
Игра престолов / Game of Thrones
(Сезон 2, серии 00-10 из 10) (2012) WEB-DL 720р (LostFilm)

Производство: США, HBO, Television 360, Grok! Studio
Жанр: Драма, фэнтази
Сезон: 2
Серии: 00-10 из 10 серии
Продолжительность: ~ 60:00 мин серия

Перевод: Профессиональный многоголосый закадровый - LostFilm

Режиссер: Тимоти Ван Паттен, Брайан Кирк, Даниэль Минахан, Алан Тейлор
В ролях: Шон Бин, Питер Динклэйдж, Марк Эдди, Николай Костер-Валдау, Мишель Фэйрли, Лена Хиди, Эмилия Кларк, Иэн Глен, Эйдан Гиллен и др.

Описание:
К концу подходит время благоденствия, и лето, длившееся несколько десятилетий, угасает. Вокруг средоточия власти Семи королевств, Железного трона, зреет заговор, и в это непростое время король решает искать поддержки у друга юности Эддарда Старка (Шон Бин). В мире, где все — от короля до наемника — рвутся к власти, плетут интриги и готовы вонзить нож в спину, есть место и благородству, состраданию и любви. Между тем, никто не замечает пробуждение тьмы из легенд далеко на Севере — и лишь Стена защищает живых к югу от нее.
Между древней ледяной Стеной и пламенем навсегда ушедших из мира драконов разворачивается «Игра престолов» — долгожданная экранизация культовой саги Джорджа Р. Р. Мартина «Песнь льда и пламени».



Качество: WEB-DL 720р
Видео: x264, 1280x720, 4000 Kbps, 23.976 fps, Bits/(Pixel*Frame) : 0.179
Аудио 1: AC3, 2 ch, 384 Кбит/с, 48.0 KHz, 2 ch (RU)
Аудио 2: AC3, 2 ch, 384 Кбит/с, 48.0 KHz, 2 ch (EN)

| Сэмпл видео | Все раздачи|
Format : Matroska
File size : 1.86 GiB
Duration : 55mn 18s
Overall bit rate : 4 813 Kbps
Encoded date : UTC 2012-04-04 17:30:06
Writing application : mkvmerge v4.2.0 ('No Talking') сборка от Jul 28 2010 18:38:23
Writing library : libebml v1.0.0 + libmatroska v1.0.0
Video #1
ID : 1
Format : AVC
Format/Info : Advanced Video Codec
Format profile : High@L3.1
Format settings, CABAC : Yes
Format settings, ReFrames : 4 frames
Muxing mode : Container profile=Unknown@3.1
Codec ID : V_MPEG4/ISO/AVC
Duration : 55mn 15s
Bit rate : 3 950 Kbps
Nominal bit rate : 4 041 Kbps
Width : 1 280 pixels
Height : 720 pixels
Display aspect ratio : 16:9
Frame rate : 23.976 fps
Resolution : 24 bits
Colorimetry : 4:2:0
Scan type : Progressive
Bits/(Pixel*Frame) : 0.179
Stream size : 1.52 GiB (82%)
Writing library : x264 core 112 r1834 a51816a
Encoding settings : cabac=1 / ref=1 / deblock=1:0:0 / analyse=0x3:0x113 / me=hex / subme=7 / psy=1 / psy_rd=1.00:0.00 / mixed_ref=0 / me_range=16 / chroma_me=1 / trellis=1 / 8x8dct=1 / cqm=0 / deadzone=21,11 / fast_pskip=1 / chroma_qp_offset=-2 / threads=6 / sliced_threads=0 / nr=0 / decimate=1 / interlaced=0 / constrained_intra=0 / bframes=3 / b_pyramid=2 / b_adapt=1 / b_bias=0 / direct=1 / weightb=1 / open_gop=0 / weightp=2 / keyint=250 / keyint_min=25 / scenecut=40 / intra_refresh=0 / rc_lookahead=40 / rc=2pass / mbtree=1 / bitrate=4041 / ratetol=1.0 / qcomp=0.60 / qpmin=0 / qpmax=51 / qpstep=4 / cplxblur=20.0 / qblur=0.5 / ip_ratio=1.40 / aq=1:1.00
Audio #2
ID : 2
Format : AC-3
Format/Info : Audio Coding 3
Codec ID : A_AC3
Duration : 55mn 18s
Bit rate mode : Constant
Bit rate : 384 Kbps
Channel(s) : 2 channels
Channel positions : L R
Sampling rate : 48.0 KHz
Stream size : 152 MiB (8%)
Audio #3
ID : 3
Format : AC-3
Format/Info : Audio Coding 3
Codec ID : A_AC3
Duration : 55mn 18s
Bit rate mode : Constant
Bit rate : 384 Kbps
Channel(s) : 2 channels
Channel positions : L R
Sampling rate : 48.0 KHz
Stream size : 152 MiB (8%)

<<<Скриншоты>>>


Время раздачи: 24/7 - круглосуточно (до первых сидов - потом по возможности)
[NNM-Club.ru]_Game.of.Thrones.s02.WEB-DL.720p.LostFilm.torrent
 Торрент: Платиновая раздача  Зарегистрирован
 
Скачать


Примагнититься
 Зарегистрирован:   12 Авг 2019 18:17:36
 Размер:   20,1 GB  (
 Рейтинг:   4,9 (Голосов: 499)
 Поблагодарили:   1719
 Проверка:   Оформление проверено модератором 12 Авг 2019 20:52:33
Как cкачать  ·  Как раздать  ·  Правильно оформить  ·  Поднять ратио!  
Sa13
Стаж: 8 лет 5 мес.
Сообщений: 743
Ratio: 37,301
Раздал: 6,3 TB
100%
pirates.png
наконецто дождался 2 сезона)спс

_________________
TollayaEkb ®
Стаж: 9 лет 4 мес.
Сообщений: 5762
Ratio: 2181,467
Раздал: 116,5 TB
Поблагодарили: 217283
100%
Откуда: Екб
russia.gif
"Внутри Игры Престолов" - вступительная серия в предверии 2-го сезона.

==========================

Выход серий в оригинале

03.06.2012 - Episode 10
27.05.2012 - Episode 09
20.05.2012 - Episode 08
13.05.2012 - Episode 07
06.05.2012 - Episode 06
29.04.2012 - Episode 05
22.04.2012 - Episode 04
15.04.2012 - Episode 03
08.04.2012 - Episode 02
01.04.2012 - Episode 01

==========================

Игра престолов / Game of Thrones (Сезон 1 полный (10)) (2011) HDTVRip 400р , DD 5.1 (LostFilm)

Игра престолов / Game of Thrones (Сезон 1 полный (10)) (2011) HDTVRip 400p, DD 5.1 (AlexFilm)

Игра престолов / Game of Thrones (Сезон 1 полный (10)) (2011) BDRip 720p, DD 5.1 (AlexFilm)
BATRA
Стаж: 9 лет 1 мес.
Сообщений: 5
Ratio: 1,69
70.08%
Откуда: Украина
ukraine.gif
Развод, на Лосте нет еще 2го сезона.
sentinel2727
Стаж: 12 лет 6 мес.
Сообщений: 4371
Ratio: 104,155
Поблагодарили: 31035
100%
Откуда: Odessa
ukraine.gif
BATRA писал(а): Перейти к сообщению
Развод, на Лосте нет еще 2го сезона.


Плохо смотрите

Цитата:
Game of Thrones 2: Претенденты. 20-минутная фичуретка
nesterov86
 
Стаж: 9 лет 9 мес.
Сообщений: 134
Ratio: 16,995
Раздал: 33,6 TB
Поблагодарили: 2972
100%
Откуда: SPb
russia.gif
сидер вернись)
XmasterX
 
Стаж: 9 лет 7 мес.
Сообщений: 471
Ratio: 209,473
Поблагодарили: 12840
100%
Откуда: Оттуда
krevedko.png
откуда?!
или это 20-минутная фичуретка?

_________________
DNS-325 / ffp 0.7 / transmission 2.82
Gurkin56
Стаж: 9 лет 2 мес.
Сообщений: 2649
Ratio: 0,92
Поблагодарили: 182028
100%
Откуда: Wonderland
Лучший фэнтезийный сериал всех времён и народов! :респект:
юг71
Стаж: 8 лет 2 мес.
Сообщений: 416
Ratio: 10,618
Раздал: 160 GB
Откуда: с другой стороны монитора
russia.gif
это не второй сезон , а типа рассказа о нём ( как то так ,что то в этом роде )

_________________
Если ты споришь с идиотом , вероятней всего он делает тоже самое .
AAG_500
Стаж: 9 лет 2 мес.
Сообщений: 552
Ratio: 15,222
Раздал: 19,29 TB
100%
Откуда: Los-Engels на Саратовщине
ussr.gif
Не знаю что это, но всё равно - спасибо! :)

_________________
Ничего лишнего! Страна и так знает своих Г...
major231
Стаж: 7 лет 5 мес.
Сообщений: 1
Ratio: 1,783
2.17%
Файл не воспроизводится. Плееры висят... День дурака?
absolvo
Стаж: 8 лет 8 мес.
Сообщений: 17
Ratio: 18,308
12.2%
russia.gif
Перевод: Профессиональный многоголосый закадровый - LostFilm
ну и где он этот перевод,раздающего на мыло
ldoctor
Стаж: 9 лет 1 мес.
Сообщений: 6
Ratio: 4,724
6.12%
Перевода нет. Все на англ.
vady98
Стаж: 9 лет 1 мес.
Сообщений: 1
Ratio: 4,529
0%
ukraine.gif
ldoctor писал(а): Перейти к сообщению
Перевода нет. Все на англ.

выбери в плеере другую дорожку и будет тебе русский
nokian50
Стаж: 9 лет 2 мес.
Сообщений: 25
Ratio: 134,684
100%
ukraine.gif
надеюсь этот релиз не как не связан с 32 марта, :)
бо заждался уже :)
Показать сообщения:   
Начать новую тему   Ответить на тему    Торрент-трекер NNM-Club -> Зарубежные сериалы -> Игра престолов / Game of Thrones Часовой пояс: GMT + 3
Страницы:  1, 2, 3, 4, 5, 6, 7  След.
Страница 1 из 7