Классический форум-трекер
canvas not supported
Нас вместе: 4 095 169

Особь III / Species III (2004) DVDRip


 
 
RSS
Начать новую тему   Ответить на тему    Торрент-трекер NNM-Club -> Зарубежное кино -> Зарубежные Фильмы (HD*Rip/LQ, DVDRip, SATRip, VHSRip)
Автор Сообщение
AkaUfo ®
Сталкер
Стаж: 13 лет
Сообщений: 4504
Ratio: 2654,954
Поблагодарили: 18973
100%
Откуда: Харьков
ukraine.gif
Особь III / Species III (2004) DVDRip
Год выпуска: 2004
Производство: США
Жанр: Фантастика, Ужасы, Триллер, Боевик
Перевод: Любительский одноголосый

Дата мировой премьеры: 27 ноября 2004

Режиссер: Брэд Тернер
Продюсер: Дэвид Двиггинс, Фрэнк Манкузо мл.
Актеры: Робин Данн, Роберт Неппер, Санни Мабри, Амелия Кук, Джон Пол Питок, Майкл Уоррен, Кристофер Ним, Патрисия Бетун, Джоэль Стоффер, Джеймс Лео Райан

Описание фильма:
Сара - уже третье поколение получеловеческого-полуинопланетного существа. Это почти совершенная особь, которая была возрождена профессором биохимии Абботом. Жестокая в своих поисках партнера для размножения, Сара обладает удивительной физической силой и способностью преобразовывать свое тело в различные агрессивные формы, а также «выбрасывать» щупальца, когти и т.д. Вскоре Сара обнаруживает, что ее преследуют еще две особи, с таким же ДНК, как и у нее, - Эмилия и Йозеф. Сара возвращается в лабораторию профессора, где просит молодого лаборанта Дина, ученика Аббота, защитить ее будущее потомство - яйца. Преследуя Сару, Эмилия обнаруживает себя ошеломляюще сексуальной, но смертоносной женщиной. Она тоже, как и Сара, хочет оставить после себя потомство, но ее тело очень быстро разрушается...



Продолжительность: 01:50:55
Качество видео: DVDRip

Видео: DivX, 640x368, ~746 Кбит/сек, 29,970 кадра/сек, 0.106 Пиксели/Кадры
Аудио: MP3, 128 Кбит/сек, 2 канала, 48,0 КГц
Общее
Полное имя : Species.III.(2004).(Rus.DivX.Mp3.DVDRip).avi
Формат : AVI
Формат/Информация : Audio Video Interleave
Размер файла : 701 Мбайт
Продолжительность : 1 ч. 50 м.
Общий поток : 883 Кбит/сек
Программа кодирования : VirtualDubMod 1.5.4.1 (build 2178/release)
Библиотека кодирования : VirtualDubMod build 2178/release

Видео
Идентификатор : 0
Формат : MPEG-4 Visual
Параметр BVOP формата : 1
Параметр QPel формата : Нет
Параметр GMC формата : Без точки перехода
Параметр матрицы формата : Default (H.263)
Режим смешивания : Сжатый битовый поток
Идентификатор кодека : DX50
Идентификатор кодека/Подсказка : DivX 5
Продолжительность : 1 ч. 50 м.
Битрейт : 746 Кбит/сек
Ширина : 640 пикселей
Высота : 368 пикселей
Соотношение сторон : 1,739
Частота кадров : 29,970 кадров/сек
Цветовое пространство : YUV
Субдискретизация насыщенности : 4:2:0
Битовая глубина : 8 бит
Тип развёртки : Прогрессивная
Метод сжатия : С потерями
Бит/(Пиксели*Кадры) : 0.106
Размер потока : 592 Мбайт (85%)
Библиотека кодирования : DivX 5.2.1 Beta (UTC 2004-09-08)

Аудио
Идентификатор : 1
Формат : MPEG Audio
Версия формата : Version 1
Профиль формата : Layer 3
Режим : Joint stereo
Расширение режима : MS Stereo
Идентификатор кодека : 55
Идентификатор кодека/Подсказка : MP3
Продолжительность : 1 ч. 50 м.
Вид битрейта : Постоянный
Битрейт : 128 Кбит/сек
Каналы : 2 канала
Частота : 48,0 КГц
Метод сжатия : С потерями
Размер потока : 102 Мбайт (14%)
Выравнивание : Соединение по промежуткам
Продолжительность промежутка : 67 мс. (2,00 видеокадра)
Время предзагрузки промежутка : 504 мс.
Язык : Russian
Скриншоты:
Species.III.(2004).(Rus.DivX.Mp3.DVDRip).avi.torrent
 Торрент: Платиновая раздача  Зарегистрирован
 
Скачать


 Зарегистрирован:   16 Ноя 2007 14:41:14
 Размер:   701 MB  (
 Рейтинг:   4,8 (Голосов: 37)
 Поблагодарили:   143
 Проверка:   Оформление проверено модератором 19 Ноя 2007 18:26:48
Как cкачать  ·  Как раздать  ·  Правильно оформить  ·  Поднять ратио!  
madaxus
Стаж: 10 лет 2 мес.
Сообщений: 14
Ratio: 7,461
Поблагодарили: 3
100%
ussr.gif
Спасибо тебе, добрый сидер.
Три части за одну ночь - прямо таки подарок новогодний.
Elenka23
Стаж: 10 лет
Сообщений: 28
Ratio: 13,774
100%
ukraine.gif
Безобразие.. ни одного сида :злость:
Casper30
Стаж: 8 лет 11 мес.
Сообщений: 2
Ratio: 0,36
100%
Откуда: Нижегородская область, г.Кстово
russia.gif
Чет я не понял а че никто не раздает????????????????????
George Jot
Стаж: 13 лет 4 мес.
Сообщений: 7
Ratio: 43,811
35.29%
ussr.gif
Увы, скриншоты уже отсутствуют. Сделаю ка я их по новой…
Общее
Полное имя : Species.III.(2004).(Rus.DivX.Mp3.DVDRip).avi
Формат : AVI
Формат/Информация : Audio Video Interleave
Размер файла : 701 Мбайт
Продолжительность : 1 ч. 50 м.
Общий поток : 883 Кбит/сек
Программа кодирования : VirtualDubMod 1.5.4.1 (build 2178/release)
Библиотека кодирования : VirtualDubMod build 2178/release

Видео
Идентификатор : 0
Формат : MPEG-4 Visual
Параметр BVOP формата : 1
Параметр QPel формата : Нет
Параметр GMC формата : Без точки перехода
Параметр матрицы формата : Default (H.263)
Режим смешивания : Сжатый битовый поток
Идентификатор кодека : DX50
Идентификатор кодека/Подсказка : DivX 5
Продолжительность : 1 ч. 50 м.
Битрейт : 746 Кбит/сек
Ширина : 640 пикселей
Высота : 368 пикселей
Соотношение сторон : 1,739
Частота кадров : 29,970 кадров/сек
Цветовое пространство : YUV
Субдискретизация насыщенности : 4:2:0
Битовая глубина : 8 бит
Тип развёртки : Прогрессивная
Метод сжатия : С потерями
Бит/(Пиксели*Кадры) : 0.106
Размер потока : 592 Мбайт (85%)
Библиотека кодирования : DivX 5.2.1 Beta (UTC 2004-09-08)

Аудио
Идентификатор : 1
Формат : MPEG Audio
Версия формата : Version 1
Профиль формата : Layer 3
Режим : Joint stereo
Расширение режима : MS Stereo
Идентификатор кодека : 55
Идентификатор кодека/Подсказка : MP3
Продолжительность : 1 ч. 50 м.
Вид битрейта : Постоянный
Битрейт : 128 Кбит/сек
Каналы : 2 канала
Частота : 48,0 КГц
Метод сжатия : С потерями
Размер потока : 102 Мбайт (14%)
Выравнивание : Соединение по промежуткам
Продолжительность промежутка : 67 мс. (2,00 видеокадра)
Время предзагрузки промежутка : 504 мс.
Язык : Russian
P.S.
mike789xa
Стаж: 8 лет 1 мес.
Сообщений: 59
Ratio: 19,88
100%
А Наташа там будет?
Показать сообщения:   
Начать новую тему   Ответить на тему    Торрент-трекер NNM-Club -> Зарубежное кино -> Зарубежные Фильмы (HD*Rip/LQ, DVDRip, SATRip, VHSRip) Часовой пояс: GMT + 3
Страница 1 из 1