Классический форум-трекер
canvas not supported
Нас вместе: 4 094 520

Остаться в живых / Lost, 1 сезон для Blackberry Playbook [1024x600] и других планшетов


 
 
RSS
Начать новую тему   Ответить на тему    Торрент-трекер NNM-Club -> Архив торрентов -> Архив КПК и Мобильных устройств
Автор Сообщение
Wildhamster ®
Стаж: 9 лет 5 мес.
Сообщений: 36
Ratio: 4,88
Поблагодарили: 460
100%
Остаться в живых / Lost, 1 сезон для Blackberry playbook
Русское название: Остаться в живых
Оригинальное название: Lost, 1 сезон
Год выпуска: 2004
Жанр: Приключения, Триллер

Перевод: Дублированный



Режиссер: Джек Бендер, Дэниэл Эттиэс, Род Холкомб
Актеры: Мэттью Фокс Эванджелин Лилли Джош Холлоуэй Терри О’Куинн Нэвин Эндрюс Хорхе Гарсиа Майкл Эмерсон Эмили де Рэйвин Дэниэл Дэ Ким Юн-жин Ки

Описание фильма:
Красавец-лайнер, совершающий полет из Сиднея в Лос-Анджелес, неожиданно терпит крушение. 48 пассажиров, оставшихся в живых, оказываются на пустынном острове посреди океана. Люди в панике.

Надежда быть найденными довольно призрачна. Поэтому остается только одно: собраться с силами и постараться выжить на острове, начиненном множеством опасностей…
Бюджет пилотной двухчасовой серии составляет около 12 миллионов долларов. Ни один телевизионный сериал не может похвастаться таким размахом. Как показала практика, это решение стоило вложенных средств, так как фильм стал самым популярным за всю историю телеканала ABC.
Первый сезон сериала посвящен первым 40 дням, проведенным «робинзонами» на острове.
Продолжительность: 25x44
Качество видео: BDRip

Видеокодек: MPEG-4 AVC/H.264
Битрейт видео: ~2231 kb/s
Размер кадра: 1024x600
Аудиокодек: MP3
Битрейт аудио: 128 kb/s
Видео
Идентификатор : 1
Формат : AVC
Формат/Информация : Advanced Video Codec
Профиль формата : Baseline@L3.1
Параметр CABAC формата : Нет
Параметр ReFrames формата : 1 кадр
Параметр GOP формата : M=1, N=12
Идентификатор кодека : avc1
Идентификатор кодека/Информация : Advanced Video Coding
Продолжительность : 42 м.
Вид битрейта : Переменный
Битрейт : 2237 Кбит/сек
Максимальный битрейт : 2700 Кбит/сек
Ширина : 1024 пикселя
Высота : 600 пикселей
Соотношение сторон : 16:9
Режим частоты кадров : Постоянный
Частота кадров : 29,970 кадров/сек
Частота кадров в оригинале : 24,000 кадра/сек
Цветовое пространство : YUV
Субдискретизация насыщенности : 4:2:0
Битовая глубина : 8 бит
Тип развёртки : Прогрессивная
Бит/(Пиксели*Кадры) : 0.121
Размер потока : 677 Мбайт (94%)
Язык : English
Дата кодирования : UTC 2012-04-05 09:25:10
Дата пометки : UTC 2012-04-05 09:25:10

Аудио
Идентификатор : 2
Формат : AAC
Формат/Информация : Advanced Audio Codec
Профиль формата : LC
Идентификатор кодека : 40
Продолжительность : 42 м.
Вид битрейта : Переменный
Битрейт : 128 Кбит/сек
Каналы : 2 канала
Расположение каналов : Front: L R
Частота : 44,1 КГц
Метод сжатия : С потерями
Размер потока : 38,7 Мбайт (5%)
Язык : Russian
Дата кодирования : UTC 2012-04-05 09:25:10
Дата пометки : UTC 2012-04-05 09:25:10
Скриншоты:

Время раздачи: до 10 скачавших
[NNM-Club.ru]_Lost 1s.torrent
 Торрент: Платиновая раздача  Зарегистрирован
 
Скачать


 Зарегистрирован:   07 Апр 2012 16:34:11
 Размер:   17,7 GB  (
 Рейтинг:   3,9 (Голосов: 10)
 Поблагодарили:   25
 Проверка:   Оформление проверено модератором 08 Апр 2012 11:16:28
Как cкачать  ·  Как раздать  ·  Правильно оформить  ·  Поднять ратио!  
Топик был перенесен из форума Мобильное Видео в форум Архив КПК и Мобильных устройств


powerv5000
Показать сообщения:   
Начать новую тему   Ответить на тему    Торрент-трекер NNM-Club -> Архив торрентов -> Архив КПК и Мобильных устройств Часовой пояс: GMT + 3
Страница 1 из 1