Классический форум-трекер
canvas not supported
Нас вместе: 4 094 372

Корпорация монстров / Monsters, Inc. (2001) [720p] BDRip


 
 
RSS
Начать новую тему   Ответить на тему    Торрент-трекер NNM-Club -> Мультфильмы -> Зарубежные Мультфильмы (HD, UHD, UHD-LQ)
Автор Сообщение
Zov72 ®
Стаж: 10 лет 1 мес.
Сообщений: 4743
Ratio: 110,504
Поблагодарили: 599911
100%
Откуда: Вольный кабан
wild_hogs.gif
Корпорация монстров / Monsters, Inc. (2001) BDRip
«We Think They Are Scary, But Really We Scare Them!»

Название: Корпорация монстров
Оригинальное название: Monsters, Inc.
Выпущено: США
Год выпуска: 2001
Жанр: Компьютерная анимация, Приключения, Комедия

Описание:
Склизский гад в сливном бачке, мохнатый зверь, похожий на чудовище из «Аленького цветочка», гигантские мокрицы под кроватью - все они существуют на самом деле. Все, что им нужно - пугать детей, потому что из детских криков они получают электричество.

Полнометражный мультфильм рассказывает о кризисах в мире монстров, их жизни. Но однажды вся мирная жизнь монстров оказывается под угрозой: в их мир попадает ребенок. А с детьми столько хлопот, что они могут довести даже монстров.

Режиссер: Пит Доктер, Дэвид Силверман, Ли Анкрич
Персонажи: Джон Гудман, Билли Кристал, Мэри Гиббс, Стив Бушеми, Джеймс Кобурн, Дженнифер Тилли, Боб Петерсон, Джон Ратценбергер, Фрэнк Оз, Дэн Джерсон, Стив Сусскинд, Бонни Хант, Джефф Пиджон, Сэмюэл Лорд Блэк, Джек Энджел, Боб Берген, Роджер Бампасс, Джино Конфорти, Дженнифер Дарлинг, Патти Дьютч, Пит Доктер

Продолжительность: 01:32:15
Перевод: Дублированный? Двухголосый закадровый, Авторский одноголосый
Язык субтитров: Russian (надписи и пр.), Russian (R5), Russian (Киномания) - SRT, English, French, Spanish, Swedish - ASS
Вид субтитров: Вшитые

Видеокодек: MPEG-4 AVC/H.264
Битрейт видео: ~4618 kbps
Размер кадра: 1280x692
Качество видео: BDRip
Аудио#1: Russian: 48 kHz, AC3, 3/2 (L,C,R,l,r) + LFE ch, ~384.00 kbps avg |Дубляж|
Аудио#2: Ukrainian: 48 kHz, AC3, 2/0 (L,R) ch, ~192.00 kbps avg |Дубляж|
Аудио#3: Russian: 48 kHz, DTS, 3/2 (L,C,R,l,r) + LFE ch, ~1536.00 kbps avg |Двухголосый закадровый, П.Гланц и И.Королёва|
Аудио#4: Russian: 48 kHz, DTS, 3/2 (L,C,R,l,r) + LFE ch, ~1536.00 kbps avg |Одноголосый закадровый, А.Гаврилов|
Аудио#5: English: 48 kHz, DTS-ES, 3/3 (L,C,R,l,c,r) + LFE ch, ~1536.00 kbps avg
Аудио#6: English: 48 kHz, OGG, 2/0 (L,R) ch, ~80.00 kbps avg |Commentary|
Код:

General
Unique ID                                : 245208054582646619820839014726101629807 (0xB8795A7E7D21E0379F15384D65CBFB6F)
Complete name                            : C:\Users\Сергей\Downloads\Monster,Inc.2001.720p.BluRay.Rus.Ukr.Eng..mkv
Format                                   : Matroska
Format version                           : Version 2
File size                                : 6.32 GiB
Duration                                 : 1h 32mn
Overall bit rate mode                    : Variable
Overall bit rate                         : 9 804 Kbps
Movie name                               : Monsters, Inc. (2001)
Encoded date                             : UTC 2009-06-08 19:47:21
Writing application                      : mkvmerge v2.9.0 ('Moanin'') built on May 22 2009 17:46:31
Writing library                          : libebml v0.7.7 + libmatroska v0.8.1
Attachment                               : Yes / Yes / Yes

Video
ID                                       : 1
Format                                   : AVC
Format/Info                              : Advanced Video Codec
Format profile                           : High@L4.0
Format settings, CABAC                   : Yes
Format settings, ReFrames                : 9 frames
Codec ID                                 : V_MPEG4/ISO/AVC
Duration                                 : 1h 32mn
Bit rate                                 : 4 618 Kbps
Width                                    : 1 280 pixels
Height                                   : 692 pixels
Display aspect ratio                     : 1.850
Frame rate                               : 23.976 fps
Color space                              : YUV
Chroma subsampling                       : 4:2:0
Bit depth                                : 8 bits
Scan type                                : Progressive
Bits/(Pixel*Frame)                       : 0.217
Stream size                              : 2.85 GiB (45%)
Title                                    : Release for HDClub by HANSMER
Writing library                          : x264 core 67 r1163M 3f56e27
Encoding settings                        : cabac=1 / ref=9 / deblock=1:-3:-3 / analyse=0x3:0x113 / me=umh / subme=9 / psy_rd=1.2:0.0 / mixed_ref=1 / me_range=64 / chroma_me=1 / trellis=2 / 8x8dct=1 / cqm=0 / deadzone=21,11 / chroma_qp_offset=-2 / threads=6 / nr=0 / decimate=1 / mbaff=0 / bframes=6 / b_pyramid=1 / b_adapt=2 / b_bias=0 / direct=3 / wpredb=1 / keyint=250 / keyint_min=25 / scenecut=40 / rc=2pass / bitrate=4618 / ratetol=1.0 / qcomp=0.60 / qpmin=10 / qpmax=51 / qpstep=4 / cplxblur=20.0 / qblur=0.5 / ip_ratio=1.40 / pb_ratio=1.30 / aq=1:0.80
Language                                 : English
Default                                  : Yes
Forced                                   : No

Audio #1
ID                                       : 2
Format                                   : AC-3
Format/Info                              : Audio Coding 3
Mode extension                           : CM (complete main)
Codec ID                                 : A_AC3
Duration                                 : 1h 32mn
Bit rate mode                            : Constant
Bit rate                                 : 384 Kbps
Channel(s)                               : 6 channels
Channel positions                        : Front: L C R, Side: L R, LFE
Sampling rate                            : 48.0 KHz
Bit depth                                : 16 bits
Compression mode                         : Lossy
Stream size                              : 253 MiB (4%)
Title                                    : AC3 5.1 384 Kbps Дубляж
Language                                 : Russian
Default                                  : Yes
Forced                                   : No

Audio #2
ID                                       : 3
Format                                   : AC-3
Format/Info                              : Audio Coding 3
Mode extension                           : CM (complete main)
Codec ID                                 : A_AC3
Duration                                 : 1h 32mn
Bit rate mode                            : Constant
Bit rate                                 : 192 Kbps
Channel(s)                               : 2 channels
Channel positions                        : Front: L R
Sampling rate                            : 48.0 KHz
Bit depth                                : 16 bits
Compression mode                         : Lossy
Stream size                              : 127 MiB (2%)
Title                                    : AC3 2.0 192 Kbps Дубляж
Language                                 : Ukrainian
Default                                  : No
Forced                                   : No

Audio #3
ID                                       : 4
Format                                   : DTS
Format/Info                              : Digital Theater Systems
Codec ID                                 : A_DTS
Duration                                 : 1h 32mn
Bit rate mode                            : Constant
Bit rate                                 : 1 510 Kbps
Channel(s)                               : 6 channels
Channel positions                        : Front: L C R, Side: L R, LFE
Sampling rate                            : 48.0 KHz
Bit depth                                : 24 bits
Compression mode                         : Lossy
Stream size                              : 996 MiB (15%)
Title                                    : DTS 5.1 1536 Kbps Двухголосый закадровый - П.Гланц и И.Королёва
Language                                 : Russian
Default                                  : No
Forced                                   : No

Audio #4
ID                                       : 5
Format                                   : DTS
Format/Info                              : Digital Theater Systems
Codec ID                                 : A_DTS
Duration                                 : 1h 32mn
Bit rate mode                            : Constant
Bit rate                                 : 1 510 Kbps
Channel(s)                               : 6 channels
Channel positions                        : Front: L C R, Side: L R, LFE
Sampling rate                            : 48.0 KHz
Bit depth                                : 24 bits
Compression mode                         : Lossy
Stream size                              : 996 MiB (15%)
Title                                    : DTS 5.1 1536 Kbps Одноголосый закадровый - А. Гаврилов
Language                                 : Russian
Default                                  : No
Forced                                   : No

Audio #5
ID                                       : 6
Format                                   : DTS
Format/Info                              : Digital Theater Systems
Format profile                           : ES
Codec ID                                 : A_DTS
Duration                                 : 1h 32mn
Bit rate mode                            : Constant
Bit rate                                 : 1 510 Kbps
Channel(s)                               : 6 channels
Channel positions                        : Front: L C R, Side: L R, LFE
Sampling rate                            : 48.0 KHz
Bit depth                                : 24 bits
Compression mode                         : Lossy
Stream size                              : 996 MiB (15%)
Title                                    : DTS-ES 5.1 1536 Kbps
Language                                 : English
Default                                  : No
Forced                                   : No

Audio #6
ID                                       : 7
Format                                   : Vorbis
Format settings, Floor                   : 1
Codec ID                                 : A_VORBIS
Duration                                 : 1h 32mn
Bit rate mode                            : Variable
Bit rate                                 : 80.0 Kbps
Channel(s)                               : 2 channels
Sampling rate                            : 48.0 KHz
Compression mode                         : Lossy
Stream size                              : 52.8 MiB (1%)
Title                                    : Vorbis 2.0 80 Kbps Commentary
Writing library                          : libVorbis 1.2 (UTC 2007-06-22)
Language                                 : English
Default                                  : No
Forced                                   : No

Text #1
ID                                       : 8
Format                                   : UTF-8
Codec ID                                 : S_TEXT/UTF8
Codec ID/Info                            : UTF-8 Plain Text
Title                                    : Forced
Language                                 : Russian
Default                                  : Yes
Forced                                   : No

Text #2
ID                                       : 9
Format                                   : UTF-8
Codec ID                                 : S_TEXT/UTF8
Codec ID/Info                            : UTF-8 Plain Text
Title                                    : R5
Language                                 : Russian
Default                                  : No
Forced                                   : No

Text #3
ID                                       : 10
Format                                   : UTF-8
Codec ID                                 : S_TEXT/UTF8
Codec ID/Info                            : UTF-8 Plain Text
Title                                    : Киномания
Language                                 : Russian
Default                                  : No
Forced                                   : No

Text #4
ID                                       : 11
Format                                   : ASS
Codec ID                                 : S_TEXT/ASS
Codec ID/Info                            : Advanced Sub Station Alpha
Compression mode                         : Lossless
Language                                 : English
Default                                  : No
Forced                                   : No

Text #5
ID                                       : 12
Format                                   : ASS
Codec ID                                 : S_TEXT/ASS
Codec ID/Info                            : Advanced Sub Station Alpha
Compression mode                         : Lossless
Language                                 : French
Default                                  : No
Forced                                   : No

Text #6
ID                                       : 13
Format                                   : ASS
Codec ID                                 : S_TEXT/ASS
Codec ID/Info                            : Advanced Sub Station Alpha
Compression mode                         : Lossless
Language                                 : Spanish
Default                                  : No
Forced                                   : No

Text #7
ID                                       : 14
Format                                   : ASS
Codec ID                                 : S_TEXT/ASS
Codec ID/Info                            : Advanced Sub Station Alpha
Compression mode                         : Lossless
Language                                 : Swedish
Default                                  : No
Forced                                   : No


Скриншоты:





Релиз:
Приятного просмотра !!!
и не забываем говорить СПАСИБО...

Время раздачи: 24/7
до 15 скачавших..
[NNM-Club.ru]_Monster,Inc.2001.720p.BluRay.Rus.Ukr.Eng..mkv.torrent
 Торрент: Платиновая раздача  Зарегистрирован
 
Скачать


Примагнититься
 Зарегистрирован:   10 Апр 2012 13:04:57
 Размер:   6,32 GB  (
 Рейтинг:   4,9 (Голосов: 116)
 Поблагодарили:   475
 Проверка:   Оформление проверено модератором 10 Апр 2012 18:36:52
Как cкачать  ·  Как раздать  ·  Правильно оформить  ·  Поднять ратио!  
serega1884
Стаж: 9 лет 5 мес.
Сообщений: 335
Ratio: 6,873
100%
ukraine.gif
Спасибо нажал .Как сделать с этого MKV DVD 5 ( в подарок ) ? :шок:
Zov72 ®
Стаж: 10 лет 1 мес.
Сообщений: 4743
Ratio: 110,504
Поблагодарили: 599911
100%
Откуда: Вольный кабан
wild_hogs.gif
serega1884 писал(а): Перейти к сообщению
Спасибо нажал .Как сделать с этого MKV DVD 5 ( в подарок ) ? :шок:

отписал в личку где можно взять готовый..

_________________
Мне чужого не надо….Но свое я заберу, чье бы оно ни было!!!
serega1884
Стаж: 9 лет 5 мес.
Сообщений: 335
Ratio: 6,873
100%
ukraine.gif
DVD уже закатал .А есть продолжение (про машину )? :ангел:
fun7
Стаж: 8 лет 10 мес.
Сообщений: 5
Ratio: 213,038
70%
А там в конце есть эпизоды типа смешные дубли во время съемок и сценка из мюзикла Майка?
oksi0867
Стаж: 8 лет 6 мес.
Сообщений: 49
Ratio: 70,364
100%
Откуда: Краснодар
russia.gif
Присоединясюь к вопросу fun7. Ищем с дочей версию, где во время последней песни и титров идут сценка из мюзикла Майка, смешные дубли и т.д. Здесь есть это?
Показать сообщения:   
Начать новую тему   Ответить на тему    Торрент-трекер NNM-Club -> Мультфильмы -> Зарубежные Мультфильмы (HD, UHD, UHD-LQ) Часовой пояс: GMT + 3
Страница 1 из 1