Классический форум-трекер
canvas not supported
Нас вместе: 4 078 887

[EN] Вход в никуда / Enter Nowhere (2011) DVDRip


 
 
RSS
Начать новую тему   Ответить на тему    Торрент-трекер NNM-Club -> Архив торрентов -> Архив Видео
Автор Сообщение
smaster67 ®
Модератор Видео
Покровитель талантов Uploader 300+
Стаж: 10 лет 3 мес.
Сообщений: 7117
Ratio: 225,468
Поблагодарили: 215360
100%
[EN] Вход в никуда / Enter Nowhere (2011) DVDRip
Русское название: Вход в никуда
Оригинальное название: Enter Nowhere
Год выпуска: 2011
Жанр: Ужасы, Триллер, Детектив

Описание фильма:
В центре сюжета фильма несколько героев, оказавшихся волей случая в безлюдном сверхъестественном лесу. Здесь судьбы людей переплетаются жестоким образом. Зайдя друг за другом в пустующую сторожку наши герои совершают большую ошибку. С этого момента их начинают преследовать некто или нечто...

Режиссер: Джек Хеллер
Актеры: Сара Пэкстон, Скотт Иствуд, Шон Сайпос, Кристофер Денхам, Кэтерин Уотерстон

Продолжительность: 01:29:28
Перевод: Отсутствует
Язык: Английский



Видеокодек: Xvid
Битрейт видео: ~964kbps
Размер кадра: 640 x 272
Качество видео: DVDRip
Аудиокодек: MP3 2.0
Битрейт аудио: 128kbps
Сэмпл: Ссылка
General
Complete name Enter.Nowhere.2011.DVDRip.XviD-NYDIC\Enter.Nowhere.2011.DVDRip.XviD-NYDIC.avi
Format : AVI
Format/Info : Audio Video Interleave
File size : 707 MiB
Duration : 1h 29mn
Overall bit rate : 1 105 Kbps
Writing library : VirtualDub build 32661/release

Video
ID : 0
Format : MPEG-4 Visual
Format profile : Advanced Simple@L5
Format settings, BVOP : 2
Format settings, QPel : No
Format settings, GMC : No warppoints
Format settings, Matrix : Default (H.263)
Muxing mode : Packed bitstream
Codec ID : XVID
Codec ID/Hint : XviD
Duration : 1h 29mn
Bit rate : 965 Kbps
Width : 640 pixels
Height : 272 pixels
Display aspect ratio : 2.35:1
Frame rate : 29.970 fps
Color space : YUV
Chroma subsampling : 4:2:0
Bit depth : 8 bits
Scan type : Progressive
Compression mode : Lossy
Bits/(Pixel*Frame) : 0.185
Stream size : 617 MiB (87%)
Writing library : XviD 63

Audio
ID : 1
Format : MPEG Audio
Format version : Version 1
Format profile : Layer 3
Mode : Joint stereo
Mode extension : MS Stereo
Codec ID : 55
Codec ID/Hint : MP3
Duration : 1h 29mn
Bit rate mode : Constant
Bit rate : 128 Kbps
Channel(s) : 2 channels
Sampling rate : 48.0 KHz
Compression mode : Lossy
Stream size : 81.9 MiB (12%)
Alignment : Split accross interleaves
Interleave, duration : 33 ms (1.00 video frame)
Interleave, preload duration : 500 ms


Время раздачи: С 13:00 до 23:00
[NNM-Club.ru]_Enter.Nowhere..torrent
 Торрент: Золотая раздача  Зарегистрирован
 
Зарегистрируйтесь и скачайте торрент!
14 KB

Примагнититься
 Зарегистрирован:   10 Апр 2012 13:23:32
 Размер:   707 MB  (
 Рейтинг:    (Голосов: 7)
 Поблагодарили:   16
 Проверка:   Оформление проверено модератором 10 Апр 2012 18:19:51
Как cкачать  ·  Как раздать  ·  Правильно оформить  ·  Поднять ратио!  
Загрузка...
Valery 007
Стаж: 8 лет 6 мес.
Сообщений: 427
Ratio: 25,486
100%
В центре сюжета фильма несколько героев, оказавшихся волей случая в безлюдном сверхъестественном лесу. Здесь судьбы людей переплетаются жестоким образом. Зайдя друг за другом в пустующую сторожку наши герои совершают большую ошибку. С этого момента их начинают преследовать некто или нечто...
Топик был перенесен из форума Фильмы в оригинале в форум Архив Видео


batonchik
Показать сообщения:   
Начать новую тему   Ответить на тему    Торрент-трекер NNM-Club -> Архив торрентов -> Архив Видео Часовой пояс: GMT + 3
Страница 1 из 1